  0
SECTION
  2
HEADER
  9
$ACADVER
  1
AC1018
  9
$ACADMAINTVER
 70
   104
  9
$DWGCODEPAGE
  3
ANSI_1252
  9
$LASTSAVEDBY
  1
cwood
  9
$INSBASE
 10
0.0
 20
0.0
 30
0.0
  9
$EXTMIN
 10
809.6080775799746
 20
0.0
 30
0.0
  9
$EXTMAX
 10
7285.054587084106
 20
4845.914381818936
 30
0.0
  9
$LIMMIN
 10
0.0
 20
0.0
  9
$LIMMAX
 10
3890.0
 20
2660.0
  9
$ORTHOMODE
 70
     1
  9
$REGENMODE
 70
     1
  9
$FILLMODE
 70
     1
  9
$QTEXTMODE
 70
     0
  9
$MIRRTEXT
 70
     0
  9
$LTSCALE
 40
100.0
  9
$ATTMODE
 70
     1
  9
$TEXTSIZE
 40
25.0
  9
$TRACEWID
 40
0.05
  9
$TEXTSTYLE
  7
TITLE3
  9
$CLAYER
  8
Layer2
  9
$CELTYPE
  6
ByLayer
  9
$CECOLOR
 62
   256
  9
$CELTSCALE
 40
1.0
  9
$DISPSILH
 70
     0
  9
$DIMSCALE
 40
1.0
  9
$DIMASZ
 40
0.12
  9
$DIMEXO
 40
0.05
  9
$DIMDLI
 40
0.5
  9
$DIMRND
 40
0.0
  9
$DIMDLE
 40
0.0
  9
$DIMEXE
 40
0.1
  9
$DIMTP
 40
0.1
  9
$DIMTM
 40
0.1
  9
$DIMTXT
 40
0.12
  9
$DIMCEN
 40
0.0
  9
$DIMTSZ
 40
0.0
  9
$DIMTOL
 70
     0
  9
$DIMLIM
 70
     0
  9
$DIMTIH
 70
     1
  9
$DIMTOH
 70
     1
  9
$DIMSE1
 70
     0
  9
$DIMSE2
 70
     0
  9
$DIMTAD
 70
     0
  9
$DIMZIN
 70
     7
  9
$DIMBLK
  1

  9
$DIMASO
 70
     0
  9
$DIMSHO
 70
     0
  9
$DIMPOST
  1

  9
$DIMAPOST
  1
mm
  9
$DIMALT
 70
     0
  9
$DIMALTD
 70
     2
  9
$DIMALTF
 40
25.4
  9
$DIMLFAC
 40
1.0
  9
$DIMTOFL
 70
     0
  9
$DIMTVP
 40
0.0
  9
$DIMTIX
 70
     0
  9
$DIMSOXD
 70
     0
  9
$DIMSAH
 70
     0
  9
$DIMBLK1
  1

  9
$DIMBLK2
  1

  9
$DIMSTYLE
  2
AM_ANSI
  9
$DIMCLRD
 70
   256
  9
$DIMCLRE
 70
   256
  9
$DIMCLRT
 70
     2
  9
$DIMTFAC
 40
0.71
  9
$DIMGAP
 40
0.06
  9
$DIMJUST
 70
     0
  9
$DIMSD1
 70
     0
  9
$DIMSD2
 70
     0
  9
$DIMTOLJ
 70
     1
  9
$DIMTZIN
 70
     0
  9
$DIMALTZ
 70
     0
  9
$DIMALTTZ
 70
     0
  9
$DIMUPT
 70
     0
  9
$DIMDEC
 70
     4
  9
$DIMTDEC
 70
     4
  9
$DIMALTU
 70
     2
  9
$DIMALTTD
 70
     2
  9
$DIMTXSTY
  7
STANDARD
  9
$DIMAUNIT
 70
     0
  9
$DIMADEC
 70
     0
  9
$DIMALTRND
 40
0.0
  9
$DIMAZIN
 70
     0
  9
$DIMDSEP
 70
    46
  9
$DIMATFIT
 70
     3
  9
$DIMFRAC
 70
     0
  9
$DIMLDRBLK
  1

  9
$DIMLUNIT
 70
     2
  9
$DIMLWD
 70
    -2
  9
$DIMLWE
 70
    -2
  9
$DIMTMOVE
 70
     0
  9
$LUNITS
 70
     2
  9
$LUPREC
 70
     2
  9
$SKETCHINC
 40
0.1
  9
$FILLETRAD
 40
0.0
  9
$AUNITS
 70
     0
  9
$AUPREC
 70
     2
  9
$MENU
  1
\acad12\support\cnc
  9
$ELEVATION
 40
0.0
  9
$PELEVATION
 40
0.0
  9
$THICKNESS
 40
0.0
  9
$LIMCHECK
 70
     0
  9
$CHAMFERA
 40
0.0
  9
$CHAMFERB
 40
0.0
  9
$CHAMFERC
 40
0.0
  9
$CHAMFERD
 40
0.0
  9
$SKPOLY
 70
     0
  9
$TDCREATE
 40
2450764.385582176
  9
$TDUCREATE
 40
2450763.885582176
  9
$TDUPDATE
 40
2455791.537821389
  9
$TDUUPDATE
 40
2455791.037821389
  9
$TDINDWG
 40
1.0034785995
  9
$TDUSRTIMER
 40
1.0034720833
  9
$USRTIMER
 70
     1
  9
$ANGBASE
 50
0.0
  9
$ANGDIR
 70
     0
  9
$PDMODE
 70
     2
  9
$PDSIZE
 40
10.0
  9
$PLINEWID
 40
0.0
  9
$SPLFRAME
 70
     0
  9
$SPLINETYPE
 70
     6
  9
$SPLINESEGS
 70
     8
  9
$HANDSEED
  5
D84B
  9
$SURFTAB1
 70
     6
  9
$SURFTAB2
 70
     6
  9
$SURFTYPE
 70
     6
  9
$SURFU
 70
     6
  9
$SURFV
 70
     6
  9
$UCSBASE
  2

  9
$UCSNAME
  2

  9
$UCSORG
 10
0.0
 20
0.0
 30
0.0
  9
$UCSXDIR
 10
1.0
 20
0.0
 30
0.0
  9
$UCSYDIR
 10
0.0
 20
1.0
 30
0.0
  9
$UCSORTHOREF
  2

  9
$UCSORTHOVIEW
 70
     0
  9
$UCSORGTOP
 10
0.0
 20
0.0
 30
0.0
  9
$UCSORGBOTTOM
 10
0.0
 20
0.0
 30
0.0
  9
$UCSORGLEFT
 10
0.0
 20
0.0
 30
0.0
  9
$UCSORGRIGHT
 10
0.0
 20
0.0
 30
0.0
  9
$UCSORGFRONT
 10
0.0
 20
0.0
 30
0.0
  9
$UCSORGBACK
 10
0.0
 20
0.0
 30
0.0
  9
$PUCSBASE
  2

  9
$PUCSNAME
  2

  9
$PUCSORG
 10
0.0
 20
0.0
 30
0.0
  9
$PUCSXDIR
 10
1.0
 20
0.0
 30
0.0
  9
$PUCSYDIR
 10
0.0
 20
1.0
 30
0.0
  9
$PUCSORTHOREF
  2

  9
$PUCSORTHOVIEW
 70
     0
  9
$PUCSORGTOP
 10
0.0
 20
0.0
 30
0.0
  9
$PUCSORGBOTTOM
 10
0.0
 20
0.0
 30
0.0
  9
$PUCSORGLEFT
 10
0.0
 20
0.0
 30
0.0
  9
$PUCSORGRIGHT
 10
0.0
 20
0.0
 30
0.0
  9
$PUCSORGFRONT
 10
0.0
 20
0.0
 30
0.0
  9
$PUCSORGBACK
 10
0.0
 20
0.0
 30
0.0
  9
$USERI1
 70
     0
  9
$USERI2
 70
     0
  9
$USERI3
 70
     0
  9
$USERI4
 70
     0
  9
$USERI5
 70
     0
  9
$USERR1
 40
0.0
  9
$USERR2
 40
0.0
  9
$USERR3
 40
0.0
  9
$USERR4
 40
0.0
  9
$USERR5
 40
0.0
  9
$WORLDVIEW
 70
     1
  9
$SHADEDGE
 70
     3
  9
$SHADEDIF
 70
    70
  9
$TILEMODE
 70
     1
  9
$MAXACTVP
 70
    16
  9
$PINSBASE
 10
0.0
 20
0.0
 30
0.0
  9
$PLIMCHECK
 70
     0
  9
$PEXTMIN
 10
1.000000000000000E+20
 20
1.000000000000000E+20
 30
1.000000000000000E+20
  9
$PEXTMAX
 10
-1.000000000000000E+20
 20
-1.000000000000000E+20
 30
-1.000000000000000E+20
  9
$PLIMMIN
 10
0.0
 20
0.0
  9
$PLIMMAX
 10
12.0
 20
9.0
  9
$UNITMODE
 70
     0
  9
$VISRETAIN
 70
     0
  9
$PLINEGEN
 70
     0
  9
$PSLTSCALE
 70
     0
  9
$TREEDEPTH
 70
  3020
  9
$CMLSTYLE
  2
Standard
  9
$CMLJUST
 70
     0
  9
$CMLSCALE
 40
1.0
  9
$PROXYGRAPHICS
 70
     1
  9
$MEASUREMENT
 70
     0
  9
$CELWEIGHT
370
    -1
  9
$ENDCAPS
280
     0
  9
$JOINSTYLE
280
     0
  9
$LWDISPLAY
290
     0
  9
$INSUNITS
 70
     0
  9
$HYPERLINKBASE
  1

  9
$STYLESHEET
  1

  9
$XEDIT
290
     1
  9
$CEPSNTYPE
380
     0
  9
$PSTYLEMODE
290
     1
  9
$FINGERPRINTGUID
  2
{271B5CA0-D99B-41BE-9CF5-F8D867241F06}
  9
$VERSIONGUID
  2
{D0B9FA41-86D0-4B75-B40F-F58980717B1D}
  9
$EXTNAMES
290
     1
  9
$PSVPSCALE
 40
0.0
  9
$OLESTARTUP
290
     0
  9
$SORTENTS
280
   127
  9
$INDEXCTL
280
     0
  9
$HIDETEXT
280
     0
  9
$XCLIPFRAME
290
     0
  9
$HALOGAP
280
     0
  9
$OBSCOLOR
 70
   257
  9
$OBSLTYPE
280
     0
  9
$INTERSECTIONDISPLAY
280
     0
  9
$INTERSECTIONCOLOR
 70
   257
  9
$DIMASSOC
280
     0
  9
$PROJECTNAME
  1

  0
ENDSEC
  0
SECTION
  2
CLASSES
  0
CLASS
  1
ACDBDICTIONARYWDFLT
  2
AcDbDictionaryWithDefault
  3
ObjectDBX Classes
 90
        0
 91
        1
280
     0
281
     0
  0
CLASS
  1
MATERIAL
  2
AcDbMaterial
  3
ObjectDBX Classes
 90
     1153
 91
        3
280
     0
281
     0
  0
CLASS
  1
VISUALSTYLE
  2
AcDbVisualStyle
  3
ObjectDBX Classes
 90
     4095
 91
       24
280
     0
281
     0
  0
CLASS
  1
SCALE
  2
AcDbScale
  3
ObjectDBX Classes
 90
     1153
 91
       17
280
     0
281
     0
  0
CLASS
  1
TABLESTYLE
  2
AcDbTableStyle
  3
ObjectDBX Classes
 90
     4095
 91
        1
280
     0
281
     0
  0
CLASS
  1
MLEADERSTYLE
  2
AcDbMLeaderStyle
  3
ACDB_MLEADERSTYLE_CLASS
 90
     4095
 91
        1
280
     0
281
     0
  0
CLASS
  1
AMGSETTINGSOBJ
  2
AmgSettingsObj
  3
"AcadM|Product Description: AutoCAD Mechanical|Company: Autodesk, Inc."
 90
     1024
 91
        2
280
     0
281
     0
  0
CLASS
  1
ACME_DOCUMENT
  2
AcMeDbDoc
  3
AcMeServices
 90
     1024
 91
        1
280
     0
281
     0
  0
CLASS
  1
ACMESCOPE
  2
AcMeScope
  3
AcMeServices
 90
     1024
 91
        1
280
     0
281
     0
  0
CLASS
  1
ACMECOMMANDHISTORY
  2
AcMeCommandHistory
  3
AcMeServices
 90
     1024
 91
        1
280
     0
281
     0
  0
CLASS
  1
ACIMSYSVARMAN
  2
AcImSysVarManager
  3
AcMeServices
 90
     1024
 91
        4
280
     0
281
     0
  0
CLASS
  1
ACIMINTSYSVAR
  2
AcImIntSysVar
  3
AcMeServices
 90
     1024
 91
       27
280
     0
281
     0
  0
CLASS
  1
ACMESTATEMGR
  2
AcMeStateMgr
  3
AcMeServices
 90
     1024
 91
        1
280
     0
281
     0
  0
CLASS
  1
ACDBENTITYCACHE
  2
AcMeEntityCache
  3
AcMeServices
 90
     1024
 91
        1
280
     0
281
     0
  0
CLASS
  1
ACGREFMASTER
  2
AcGrefMaster
  3
AcAttribServices
 90
     1024
 91
        1
280
     0
281
     0
  0
CLASS
  1
AM_DRAWING_MGR
  2
AcDmDwgMgr
  3
AcMechDwgViewMgmt
 90
     1024
 91
        1
280
     0
281
     0
  0
CLASS
  1
AM_DWG_DOCUMENT
  2
AcDmDwgDocument
  3
AcMechDwgViewMgmt
 90
     1024
 91
        1
280
     0
281
     0
  0
CLASS
  1
AM_DWG_SHEET
  2
AcDmSheet
  3
AcMechDwgViewMgmt
 90
     1024
 91
        1
280
     0
281
     0
  0
CLASS
  1
AM_VIEWDIMPARMAP
  2
AcDmViewDimParMap
  3
AcMechDwgViewMgmt
 90
     1024
 91
        1
280
     0
281
     0
  0
CLASS
  1
AMDTINTERNALREACTOR
  2
AmdtInternalReactor
  3
AcMeServices
 90
     1024
 91
        1
280
     0
281
     0
  0
CLASS
  1
ACIMREALSYSVAR
  2
AcImRealSysVar
  3
AcMeServices
 90
     1024
 91
        1
280
     0
281
     0
  0
CLASS
  1
AM_DWGMGR_NAME
  2
AcDmDwgMgrName
  3
AcMechDwgViewMgmt
 90
     1024
 91
        1
280
     0
281
     0
  0
CLASS
  1
ACME_DATABASE
  2
AcMeDbDatabase
  3
AcMeServices
 90
     1024
 91
        1
280
     0
281
     0
  0
CLASS
  1
ACRFINSADJUSTERMGR
  2
AcRfInsAdjusterMgr
  3
AcMeServices
 90
     1024
 91
        1
280
     0
281
     0
  0
CLASS
  1
ACGREFACADMASTER
  2
AcGrefacadMaster
  3
AcGrefServices
 90
     1024
 91
        1
280
     0
281
     0
  0
CLASS
  1
AMDTMENUSTATEMGR
  2
AmdtMenuStateMgr
  3
McadcomServices
 90
     1024
 91
        1
280
     0
281
     0
  0
CLASS
  1
AMDTMCOMMENUSTATE
  2
AmdtMcomMenuState
  3
McadcomServices
 90
     1024
 91
        1
280
     0
281
     0
  0
CLASS
  1
AMIMASTER
  2
AmiMaster
  3
AmiServices
 90
     1024
 91
        1
280
     0
281
     0
  0
CLASS
  1
MAPIAMMOUDLE
  2
MApiAmModule
  3
MApiAmServices
 90
     1024
 91
        1
280
     0
281
     0
  0
CLASS
  1
ACIMSTRSYSVAR
  2
AcImStrSysVar
  3
AcMeServices
 90
     1024
 91
        5
280
     0
281
     0
  0
CLASS
  1
AMDTDMMENUSTATE
  2
AmdtDmMenuState
  3
AcMechDwgViewMgmt
 90
     1024
 91
        1
280
     0
281
     0
  0
CLASS
  1
AMDTAMMENUSTATE
  2
AmdtAmMenuState
  3
DesignerAssemblies
 90
     1024
 91
        1
280
     0
281
     0
  0
CLASS
  1
ACAMPROJECT
  2
AcAmProject
  3
DesignerAssemblies
 90
     1024
 91
        1
280
     0
281
     0
  0
CLASS
  1
ACAMGRCOMPDEF
  2
AcAmGrCompDef
  3
DesignerAssemblies
 90
     1024
 91
        1
280
     0
281
     0
  0
CLASS
  1
ACAMCOMPDEF
  2
AcAmCompDef
  3
DesignerAssemblies
 90
     1024
 91
        1
280
     0
281
     0
  0
CLASS
  1
ACAMCOMPDEFMGR
  2
AcAmCompDefMgr
  3
DesignerAssemblies
 90
     1024
 91
        1
280
     0
281
     0
  0
CLASS
  1
AMCONTEXTMGR
  2
AcAmContextMgr
  3
DesignerAssemblies
 90
     1024
 91
        1
280
     0
281
     0
  0
CLASS
  1
ACAMCONTEXTMODELER
  2
AcAmContextModeler
  3
DesignerAssemblies
 90
     1024
 91
        1
280
     0
281
     0
  0
CLASS
  1
ACMDATADICTIONARY
  2
AcmDataDictionary
  3
"AcmSymBB|Product Description: AutoCAD Mechanical|Company: Autodesk, Inc."
 90
     1024
 91
        1
280
     0
281
     0
  0
CLASS
  1
ACAMGRCOMPDEFSET
  2
AcAmGrCompDefSet
  3
DesignerAssemblies
 90
     1024
 91
        1
280
     0
281
     0
  0
CLASS
  1
AMDTBROWSERDBTAB
  2
AmdtBrowserDbTab
  3
McadcomServices
 90
     1024
 91
        1
280
     0
281
     0
  0
CLASS
  1
CBROWSERAPPOBJECT
  2
CBrowserAppObject
  3
McadcomServices
 90
     1024
 91
        2
280
     0
281
     0
  0
CLASS
  1
DM_PLACEHOLDER
  2
AcDmSelsetPlaceholder
  3
AcMechDwgViewMgmt
 90
     1024
 91
        1
280
     0
281
     0
  0
CLASS
  1
EXACXREFPANELOBJECT
  2
ExAcXREFPanelObject
  3
EXAC_ESW
 90
     1025
 91
        1
280
     0
281
     0
  0
CLASS
  1
NPOCOLLECTION
  2
AcDbImpNonPersistentObjectsCollection
  3
ObjectDBX Classes
 90
     1153
 91
        1
280
     0
281
     0
  0
CLASS
  1
ACMSTANDARDANSI
  2
AcmStandardANSI
  3
"Amdt_StdImp|Product Description: AutoCAD Mechanical|Company: Autodesk, Inc."
 90
     1024
 91
        1
280
     0
281
     0
  0
CLASS
  1
ACMSURFSTANDARDANSI
  2
AcmSurfTextStdANSI
  3
"Amdt_StdImp|Product Description: AutoCAD Mechanical|Company: Autodesk, Inc."
 90
     1024
 91
        1
280
     0
281
     0
  0
CLASS
  1
ACMFCFSTANDARDANSI
  2
AcmFCFStdANSI
  3
"Amdt_StdImp|Product Description: AutoCAD Mechanical|Company: Autodesk, Inc."
 90
     1024
 91
        1
280
     0
281
     0
  0
CLASS
  1
ACMWELDSTANDARDANSI
  2
AcmWeldingStdANSI
  3
"Amdt_StdImp|Product Description: AutoCAD Mechanical|Company: Autodesk, Inc."
 90
     1024
 91
        1
280
     0
281
     0
  0
CLASS
  1
ACMIDSTANDARDANSI
  2
AcmIdStdANSI
  3
"Amdt_StdImp|Product Description: AutoCAD Mechanical|Company: Autodesk, Inc."
 90
     1024
 91
        1
280
     0
281
     0
  0
CLASS
  1
ACMDATUMSTANDARDANSI
  2
AcmDatumStdANSI
  3
"Amdt_StdImp|Product Description: AutoCAD Mechanical|Company: Autodesk, Inc."
 90
     1024
 91
        1
280
     0
281
     0
  0
CLASS
  1
ACMBOMSTANDARDANSI
  2
AcmBOMStdANSI
  3
"Amdt_StdImp|Product Description: AutoCAD Mechanical|Company: Autodesk, Inc."
 90
     1024
 91
        1
280
     0
281
     0
  0
CLASS
  1
ACMDETAILSTANDARDANSI
  2
AmdtDetailSymStdANSI
  3
"Amdt_StdImp|Product Description: AutoCAD Mechanical|Company: Autodesk, Inc."
 90
     1024
 91
        1
280
     0
281
     0
  0
CLASS
  1
ACMSECTIONSTANDARDANSI
  2
AmdtSectionSymStdANSI
  3
"Amdt_StdImp|Product Description: AutoCAD Mechanical|Company: Autodesk, Inc."
 90
     1024
 91
        1
280
     0
281
     0
  0
CLASS
  1
ACMCENTERLINESTANDARDANSI
  2
AmdtCenterLineStdANSI
  3
"Amdt_StdImp|Product Description: AutoCAD Mechanical|Company: Autodesk, Inc."
 90
     1024
 91
        1
280
     0
281
     0
  0
CLASS
  1
ACMTHREADLINESTANDARDANSI
  2
AmdtThreadLineStdANSI
  3
"Amdt_StdImp|Product Description: AutoCAD Mechanical|Company: Autodesk, Inc."
 90
     1024
 91
        1
280
     0
281
     0
  0
CLASS
  1
ACMNOTESTANDARDANSI
  2
AmdtNoteStdANSI
  3
"Amdt_StdImp|Product Description: AutoCAD Mechanical|Company: Autodesk, Inc."
 90
     1024
 91
        1
280
     0
281
     0
  0
CLASS
  1
ACMTAPERSTANDARDANSI
  2
AcmTaperStdANSI
  3
"Amdt_StdImp|Product Description: AutoCAD Mechanical|Company: Autodesk, Inc."
 90
     1024
 91
        1
280
     0
281
     0
  0
CLASS
  1
ACMANOOTATIONVIEWSTANDARDANSI
  2
AmdtAnViewStdANSI
  3
"Amdt_StdImp|Product Description: AutoCAD Mechanical|Company: Autodesk, Inc."
 90
     1024
 91
        1
280
     0
281
     0
  0
CLASS
  1
ACAMGLAYSTD
  2
AcAmgLayStd
  3
"AmgLay|Product Description: AutoCAD Mechanical|Company: Autodesk, Inc."
 90
     1024
 91
        1
280
     0
281
     0
  0
CLASS
  1
ACAMGDIMSTD
  2
AcAmgDimStd
  3
"AmgDim|Product Description: AutoCAD Mechanical|Company: Autodesk, Inc."
 90
     1024
 91
        1
280
     0
281
     0
  0
CLASS
  1
ACAMGHOLECHARTSTDANSI
  2
AcAmgHoleChartStdANSI
  3
AmgDim|Product Description: AutoCAD Mechanical|Company: Autodesk, Inc.
 90
     1024
 91
        1
280
     0
281
     0
  0
CLASS
  1
AMGOBJPROPCFG
  2
AmgObjPropCfg
  3
"AmgLay|Product Description: AutoCAD Mechanical|Company: Autodesk, Inc."
 90
     1025
 91
        1
280
     0
281
     0
  0
CLASS
  1
ACAMGTITLESTD
  2
AcAmgTitleStd
  3
"AmgTitle|Product Description: AutoCAD Mechanical|Company: Autodesk, Inc."
 90
     4095
 91
        1
280
     0
281
     0
  0
CLASS
  1
AMDTNOTETEMPLATEDB
  2
AmdtNoteTemplateDB
  3
AcmSymBB|Product Description: AutoCAD Mechanical|Company: Autodesk, Inc.
 90
     1024
 91
        6
280
     0
281
     0
  0
CLASS
  1
ACAMGFILTERDAT
  2
AcAmgFilterDat
  3
"AcadM|Product Description: AutoCAD Mechanical|Company: Autodesk, Inc."
 90
     1024
 91
        0
280
     0
281
     0
  0
CLASS
  1
DICTIONARYVAR
  2
AcDbDictionaryVar
  3
ObjectDBX Classes
 90
        0
 91
       10
280
     0
281
     0
  0
CLASS
  1
CELLSTYLEMAP
  2
AcDbCellStyleMap
  3
ObjectDBX Classes
 90
     1152
 91
        4
280
     0
281
     0
  0
CLASS
  1
SORTENTSTABLE
  2
AcDbSortentsTable
  3
ObjectDBX Classes
 90
        0
 91
        1
280
     0
281
     0
  0
CLASS
  1
ACMSTANDARDISO
  2
AcmStandardISO
  3
"Amdt_StdImp|Product Description: AutoCAD Mechanical|Company: Autodesk, Inc."
 90
     1024
 91
        0
280
     0
281
     0
  0
CLASS
  1
AMDTEDGESTANDARDISO13715
  2
AmdtEdgeStdISO13715
  3
"Amdt_StdImp|Product Description: AutoCAD Mechanical|Company: Autodesk, Inc."
 90
     1024
 91
        0
280
     0
281
     0
  0
CLASS
  1
ACMSURFSTANDARDISO2002
  2
AcmSurfTextStdISO2002
  3
"Amdt_StdImp|Product Description: AutoCAD Mechanical|Company: Autodesk, Inc."
 90
     1024
 91
        0
280
     0
281
     0
  0
CLASS
  1
ACMFCFSTANDARDISO
  2
AcmFCFStdISO
  3
"Amdt_StdImp|Product Description: AutoCAD Mechanical|Company: Autodesk, Inc."
 90
     1024
 91
        0
280
     0
281
     0
  0
CLASS
  1
ACMWELDSTANDARDISO
  2
AcmWeldingStdISO
  3
"Amdt_StdImp|Product Description: AutoCAD Mechanical|Company: Autodesk, Inc."
 90
     1024
 91
        0
280
     0
281
     0
  0
CLASS
  1
ACMIDSTANDARDISO
  2
AcmIdStdISO
  3
"Amdt_StdImp|Product Description: AutoCAD Mechanical|Company: Autodesk, Inc."
 90
     1024
 91
        0
280
     0
281
     0
  0
CLASS
  1
ACMDATUMSTANDARDISO
  2
AcmDatumStdISO
  3
"Amdt_StdImp|Product Description: AutoCAD Mechanical|Company: Autodesk, Inc."
 90
     1024
 91
        0
280
     0
281
     0
  0
CLASS
  1
ACMBOMSTANDARDISO
  2
AcmBOMStdISO
  3
"Amdt_StdImp|Product Description: AutoCAD Mechanical|Company: Autodesk, Inc."
 90
     1024
 91
        0
280
     0
281
     0
  0
CLASS
  1
ACMDETAILSTANDARDISO
  2
AmdtDetailSymStdISO
  3
"Amdt_StdImp|Product Description: AutoCAD Mechanical|Company: Autodesk, Inc."
 90
     1024
 91
        0
280
     0
281
     0
  0
CLASS
  1
ACMSECTIONSTANDARDISO2001
  2
AmdtSectionSymStdISO2001
  3
"Amdt_StdImp|Product Description: AutoCAD Mechanical|Company: Autodesk, Inc."
 90
     1024
 91
        0
280
     0
281
     0
  0
CLASS
  1
ACMCENTERLINESTANDARDISO
  2
AmdtCenterLineStdISO
  3
"Amdt_StdImp|Product Description: AutoCAD Mechanical|Company: Autodesk, Inc."
 90
     1024
 91
        0
280
     0
281
     0
  0
CLASS
  1
ACMTHREADLINESTANDARDISO
  2
AmdtThreadLineStdISO
  3
"Amdt_StdImp|Product Description: AutoCAD Mechanical|Company: Autodesk, Inc."
 90
     1024
 91
        0
280
     0
281
     0
  0
CLASS
  1
ACMNOTESTANDARDISO
  2
AmdtNoteStdISO
  3
"Amdt_StdImp|Product Description: AutoCAD Mechanical|Company: Autodesk, Inc."
 90
     1024
 91
        0
280
     0
281
     0
  0
CLASS
  1
ACMTAPERSTANDARDISO
  2
AcmTaperStdISO
  3
"Amdt_StdImp|Product Description: AutoCAD Mechanical|Company: Autodesk, Inc."
 90
     1024
 91
        0
280
     0
281
     0
  0
CLASS
  1
ACMANOOTATIONVIEWSTANDARDISO
  2
AmdtAnViewStdISO
  3
"Amdt_StdImp|Product Description: AutoCAD Mechanical|Company: Autodesk, Inc."
 90
     1024
 91
        0
280
     0
281
     0
  0
CLASS
  1
ACAMGHOLECHARTSTDISO
  2
AcAmgHoleChartStdISO
  3
AmgDim|Product Description: AutoCAD Mechanical|Company: Autodesk, Inc.
 90
     1024
 91
        0
280
     0
281
     0
  0
CLASS
  1
ACMDATAENTRYBLOCK
  2
AcmDataEntryBlock
  3
AcmSymBB|Product Description: AutoCAD Mechanical|Company: Autodesk, Inc.
 90
     1024
 91
        1
280
     0
281
     0
  0
CLASS
  1
ACRFATTGENMGR
  2
AcRfAttGeneralMgr
  3
AcAttribServices
 90
     1024
 91
        1
280
     0
281
     0
  0
CLASS
  1
ACRFOBJATTMGR
  2
AcRfObjAttGroupMgr
  3
AcAttribServices
 90
     1024
 91
        1
280
     0
281
     0
  0
CLASS
  1
ACRFMCADAPIATTHOLDER
  2
AcRfMCADAPIAttHolder
  3
AcAttribServices
 90
     1024
 91
        1
280
     0
281
     0
  0
CLASS
  1
AMDTSYSATTR
  2
AmdtSystemAttribute
  3
AcAttribServices
 90
     1024
 91
        1
280
     0
281
     0
  0
CLASS
  1
ACMBOM
  2
AcmBom
  3
"AcmSymBB|Product Description: AutoCAD Mechanical|Company: Autodesk, Inc."
 90
     1024
 91
        1
280
     0
281
     0
  0
CLASS
  1
AMDTFORMULAUPDATEDISPATCHER
  2
AmdtFormulaUpdateDispatcher
  3
AcMeServices
 90
     1024
 91
        1
280
     0
281
     0
  0
CLASS
  1
CAMSSTRUCTBTNSTATE
  2
StructBtnState
  3
DesignerAssemblies
 90
     1024
 91
        0
280
     0
281
     0
  0
ENDSEC
  0
SECTION
  2
TABLES
  0
TABLE
  2
VPORT
  5
5582
102
{ACAD_XDICTIONARY
360
6D29
102
}
330
0
100
AcDbSymbolTable
 70
     1
  0
VPORT
  5
55EB
330
5582
100
AcDbSymbolTableRecord
100
AcDbViewportTableRecord
  2
*ACTIVE
 70
     0
 10
0.0
 20
0.0
 11
1.0
 21
1.0
 12
3664.116544477864
 22
2454.065653669982
 13
0.0
 23
0.0
 14
25.0
 24
25.0
 15
100.0
 25
100.0
 16
0.0
 26
0.0
 36
1.0
 17
0.0
 27
0.0
 37
0.0
 40
5150.52745968017
 41
1.763255240443896
 42
50.0
 43
0.0
 44
0.0
 50
0.0
 51
0.0
 71
     0
 72
   100
 73
     1
 74
     0
 75
     0
 76
     0
 77
     0
 78
     0
281
     0
 65
     0
110
0.0
120
0.0
130
0.0
111
1.0
121
0.0
131
0.0
112
0.0
122
1.0
132
0.0
 79
     0
146
0.0
  0
ENDTAB
  0
TABLE
  2
LTYPE
  5
557F
330
0
100
AcDbSymbolTable
 70
    22
  0
LTYPE
  5
55D4
330
557F
100
AcDbSymbolTableRecord
100
AcDbLinetypeTableRecord
  2
ByBlock
 70
     0
  3

 72
    65
 73
     0
 40
0.0
  0
LTYPE
  5
55D5
330
557F
100
AcDbSymbolTableRecord
100
AcDbLinetypeTableRecord
  2
ByLayer
 70
     0
  3

 72
    65
 73
     0
 40
0.0
  0
LTYPE
  5
55D6
330
557F
100
AcDbSymbolTableRecord
100
AcDbLinetypeTableRecord
  2
CONTINUOUS
 70
     0
  3
Solid line
 72
    65
 73
     0
 40
0.0
  0
LTYPE
  5
55EC
330
557F
100
AcDbSymbolTableRecord
100
AcDbLinetypeTableRecord
  2
PHANTOM
 70
     0
  3
Phantom ______  __  __  ______  __  __  ______
 72
    65
 73
     6
 40
2.5
 49
1.25
 74
     0
 49
-0.25
 74
     0
 49
0.25
 74
     0
 49
-0.25
 74
     0
 49
0.25
 74
     0
 49
-0.25
 74
     0
  0
LTYPE
  5
55ED
330
557F
100
AcDbSymbolTableRecord
100
AcDbLinetypeTableRecord
  2
HIDDEN
 70
     0
  3
__ __ __ __ __ __ __ __ __ __ __ __ __ __ __ __
 72
    65
 73
     2
 40
0.375
 49
0.25
 74
     0
 49
-0.125
 74
     0
  0
LTYPE
  5
55EE
330
557F
100
AcDbSymbolTableRecord
100
AcDbLinetypeTableRecord
  2
PHANTOM2
 70
     0
  3
Phantom (.5x) ___ _ _ ___ _ _ ___ _ _ ___ _ _
 72
    65
 73
     6
 40
1.25
 49
0.625
 74
     0
 49
-0.125
 74
     0
 49
0.125
 74
     0
 49
-0.125
 74
     0
 49
0.125
 74
     0
 49
-0.125
 74
     0
  0
LTYPE
  5
55EF
330
557F
100
AcDbSymbolTableRecord
100
AcDbLinetypeTableRecord
  2
CENTER
 70
     0
  3
Center ____ _ ____ _ ____ _ ____ _ ____ _ ____
 72
    65
 73
     4
 40
2.0
 49
1.25
 74
     0
 49
-0.25
 74
     0
 49
0.25
 74
     0
 49
-0.25
 74
     0
  0
LTYPE
  5
55F3
330
557F
100
AcDbSymbolTableRecord
100
AcDbLinetypeTableRecord
  2
AMCONSTR
 70
     0
  3
_______________________
 72
    65
 73
     2
 40
9999.0
 49
9999.0
 74
     0
 49
0.0
 74
     0
  0
LTYPE
  5
55F7
330
557F
100
AcDbSymbolTableRecord
100
AcDbLinetypeTableRecord
  2
CENTER2
 70
     0
  3
Center (.5x) ___ _ ___ _ ___ _ ___ _ ___ _ ___
 72
    65
 73
     4
 40
1.125
 49
0.75
 74
     0
 49
-0.125
 74
     0
 49
0.125
 74
     0
 49
-0.125
 74
     0
  0
LTYPE
  5
55F8
330
557F
100
AcDbSymbolTableRecord
100
AcDbLinetypeTableRecord
  2
HIDDEN2
 70
     0
  3
Hidden (.5x) _ _ _ _ _ _ _ _ _ _ _ _ _ _ _ _ _
 72
    65
 73
     2
 40
0.1875
 49
0.125
 74
     0
 49
-0.0625
 74
     0
  0
LTYPE
  5
55F9
330
557F
100
AcDbSymbolTableRecord
100
AcDbLinetypeTableRecord
  2
AMZIGZAG2
 70
     0
  3
/\/-/\/-/\/-/\/-/\/-/\/
 72
    65
 73
     2
 40
0.4401
 49
0.0001
 74
     0
 49
-0.4400000000000003
 74
     0
  0
LTYPE
  5
55FA
330
557F
100
AcDbSymbolTableRecord
100
AcDbLinetypeTableRecord
  2
ACANSTGB
 70
     0
  3
__ . . __ . .
 72
    65
 73
     6
 40
0.35433070866
 49
0.15748031496
 74
     0
 49
-0.03937007874
 74
     0
 49
0.03937007874
 74
     0
 49
-0.03937007874
 74
     0
 49
0.03937007874
 74
     0
 49
-0.03937007874
 74
     0
  0
LTYPE
  5
55FB
330
557F
100
AcDbSymbolTableRecord
100
AcDbLinetypeTableRecord
  2
ACANSTGL
 70
     0
  3
_ _ _ _ _
 72
    65
 73
     2
 40
0.11811023622
 49
0.07874015748
 74
     0
 49
-0.03937007874
 74
     0
  0
LTYPE
  5
577C
330
557F
100
AcDbSymbolTableRecord
100
AcDbLinetypeTableRecord
  2
ACISOWELD
 70
     0
  3
_ _ _ _ _
 72
    65
 73
     2
 40
2.0
 49
2.0
 74
     0
 49
-1.0
 74
     0
  0
LTYPE
  5
726A
330
557F
100
AcDbSymbolTableRecord
100
AcDbLinetypeTableRecord
  2
AM_ISO02W050
 70
     0
  3
__ __ __ __ __ __ __ __ __ __ __ __ __ __ __
 72
    65
 73
     2
 40
7.5
 49
6.0
 74
     0
 49
-1.5
 74
     0
  0
LTYPE
  5
726B
330
557F
100
AcDbSymbolTableRecord
100
AcDbLinetypeTableRecord
  2
AM_ISO08W050
 70
     0
  3
____ . ____ . ____ . ____ . ____ . ____ . ____
 72
    65
 73
     4
 40
18.0
 49
12.0
 74
     0
 49
-1.5
 74
     0
 49
3.0
 74
     0
 49
-1.5
 74
     0
  0
LTYPE
  5
726C
330
557F
100
AcDbSymbolTableRecord
100
AcDbLinetypeTableRecord
  2
AM_ISO09W050
 70
     0
  3
_____ . . _____ . . _____ . . ____ .. ____
 72
    65
 73
     6
 40
22.5
 49
12.0
 74
     0
 49
-1.5
 74
     0
 49
3.0
 74
     0
 49
-1.5
 74
     0
 49
3.0
 74
     0
 49
-1.5
 74
     0
  0
LTYPE
  5
726D
330
557F
100
AcDbSymbolTableRecord
100
AcDbLinetypeTableRecord
  2
AM_ISO08W050x2
 70
     0
  3
__ . __ . __ . __ . __ . __
 72
    65
 73
     4
 40
9.0
 49
6.0
 74
     0
 49
-0.75
 74
     0
 49
1.5
 74
     0
 49
-0.75
 74
     0
  0
LTYPE
  5
726E
330
557F
100
AcDbSymbolTableRecord
100
AcDbLinetypeTableRecord
  2
AM_ISO02W050x2
 70
     0
  3
 _ _ _ _ _ _ _ _ _ _ _ _
 72
    65
 73
     2
 40
3.75
 49
3.0
 74
     0
 49
-0.75
 74
     0
  0
LTYPE
  5
7271
330
557F
100
AcDbSymbolTableRecord
100
AcDbLinetypeTableRecord
  2
Amzigzag
 70
     0
  3
/\/-/\/-/\/-/\/-/\/-/\/
 72
    65
 73
     2
 40
11.0001
 49
0.0001
 74
     4
 75
   136
340
7270
 46
0.04
 50
0.0
 44
0.0
 45
0.0
 49
-11.0
 74
     0
  0
LTYPE
  5
73F0
330
557F
100
AcDbSymbolTableRecord
100
AcDbLinetypeTableRecord
  2
ACISOTGB
 70
     0
  3
__ . . __ . .
 72
    65
 73
     6
 40
9.0
 49
4.0
 74
     0
 49
-1.0
 74
     0
 49
1.0
 74
     0
 49
-1.0
 74
     0
 49
1.0
 74
     0
 49
-1.0
 74
     0
  0
LTYPE
  5
73F1
330
557F
100
AcDbSymbolTableRecord
100
AcDbLinetypeTableRecord
  2
ACISOTGL
 70
     0
  3
_ _ _ _ _
 72
    65
 73
     2
 40
3.0
 49
2.0
 74
     0
 49
-1.0
 74
     0
  0
ENDTAB
  0
TABLE
  2
LAYER
  5
557C
102
{ACAD_XDICTIONARY
360
6775
102
}
330
0
100
AcDbSymbolTable
 70
    10
  0
LAYER
  5
55CE
102
{ACAD_XDICTIONARY
360
675C
102
}
330
557C
100
AcDbSymbolTableRecord
100
AcDbLayerTableRecord
  2
0
 70
     0
 62
     7
  6
CONTINUOUS
370
    -3
390
5589
  0
LAYER
  5
55E9
102
{ACAD_XDICTIONARY
360
675E
102
}
330
557C
100
AcDbSymbolTableRecord
100
AcDbLayerTableRecord
  2
OUTLINE
 70
     0
 62
     7
  6
CONTINUOUS
370
    -3
390
5589
  0
LAYER
  5
55FD
102
{ACAD_XDICTIONARY
360
6762
102
}
330
557C
100
AcDbSymbolTableRecord
100
AcDbLayerTableRecord
  2
OVERLAY-A3
 70
     0
 62
     7
  6
CONTINUOUS
370
    -3
390
5589
  0
LAYER
  5
55FE
102
{ACAD_XDICTIONARY
360
6764
102
}
330
557C
100
AcDbSymbolTableRecord
100
AcDbLayerTableRecord
  2
TEXT
 70
     0
 62
     7
  6
CONTINUOUS
370
    -3
390
5589
  0
LAYER
  5
577F
102
{ACAD_XDICTIONARY
360
676A
102
}
330
557C
100
AcDbSymbolTableRecord
100
AcDbLayerTableRecord
  2
Dimension (ANSI)
 70
     0
 62
     7
  6
CONTINUOUS
370
    25
390
5589
  0
LAYER
  5
5780
102
{ACAD_XDICTIONARY
360
676C
102
}
330
557C
100
AcDbSymbolTableRecord
100
AcDbLayerTableRecord
  2
Hidden (ANSI)
 70
     0
 62
     7
  6
ACISOWELD
370
    35
390
5589
  0
LAYER
  5
5781
102
{ACAD_XDICTIONARY
360
676E
102
}
330
557C
100
AcDbSymbolTableRecord
100
AcDbLayerTableRecord
  2
Visible (ANSI)
 70
     0
 62
     7
  6
CONTINUOUS
370
    50
390
5589
  0
LAYER
  5
5782
330
557C
100
AcDbSymbolTableRecord
100
AcDbLayerTableRecord
  2
Defpoints
 70
     0
 62
     7
  6
CONTINUOUS
290
     0
370
    -3
390
5589
  0
LAYER
  5
5783
102
{ACAD_XDICTIONARY
360
6770
102
}
330
557C
100
AcDbSymbolTableRecord
100
AcDbLayerTableRecord
  2
Layer1
 70
     0
 62
     7
  6
PHANTOM
370
    50
390
5589
1001
ACAECLAYERSTANDARD
1000

1000

1001
ACCMTRANSPARENCY
1071
        0
  0
LAYER
  5
691F
330
557C
100
AcDbSymbolTableRecord
100
AcDbLayerTableRecord
  2
Layer2
 70
     0
 62
     7
  6
HIDDEN
370
    25
390
5589
1001
ACAECLAYERSTANDARD
1000

1000

1001
ACCMTRANSPARENCY
1071
        0
  0
ENDTAB
  0
TABLE
  2
STYLE
  5
557D
330
0
100
AcDbSymbolTable
 70
     9
  0
STYLE
  5
55CF
330
557D
100
AcDbSymbolTableRecord
100
AcDbTextStyleTableRecord
  2
STANDARD
 70
     0
 40
0.0
 41
1.0
 50
0.0
 71
     0
 42
0.2
  3
txt
  4

  0
STYLE
  5
55EA
330
557D
100
AcDbSymbolTableRecord
100
AcDbTextStyleTableRecord
  2
TITLE3
 70
     0
 40
25.0
 41
1.0
 50
0.0
 71
     0
 42
25.0
  3
SIMPLEX.shx
  4

  0
STYLE
  5
5601
330
557D
100
AcDbSymbolTableRecord
100
AcDbTextStyleTableRecord
  2
SIMPLEX
 70
     0
 40
40.0
 41
1.0
 50
0.0
 71
     0
 42
25.0
  3
SIMPLEX
  4

  0
STYLE
  5
5602
330
557D
100
AcDbSymbolTableRecord
100
AcDbTextStyleTableRecord
  2
TITLE5
 70
     0
 40
25.0
 41
1.0
 50
0.0
 71
     0
 42
25.0
  3
SIMPLEX
  4

  0
STYLE
  5
5605
330
557D
100
AcDbSymbolTableRecord
100
AcDbTextStyleTableRecord
  2
ACANSGDT
 70
     0
 40
0.0
 41
1.0
 50
0.0
 71
     0
 42
25.0
  3
amgdt.shx
  4

  0
STYLE
  5
5784
330
557D
100
AcDbSymbolTableRecord
100
AcDbTextStyleTableRecord
  2
Note Text (ANSI)
 70
     0
 40
0.0
 41
1.0
 50
0.0
 71
     0
 42
0.2
  3
tahoma.ttf
  4

1001
ACAD
1000
Tahoma
1071
      256
  0
STYLE
  5
7270
330
557D
100
AcDbSymbolTableRecord
100
AcDbTextStyleTableRecord
  2

 70
     1
 40
0.0
 41
1.0
 50
0.0
 71
     0
 42
25.0
  3
genltshp.shx
  4

  0
STYLE
  5
7273
330
557D
100
AcDbSymbolTableRecord
100
AcDbTextStyleTableRecord
  2
ACANSTS
 70
     0
 40
1.0
 41
1.0
 50
0.0
 71
     0
 42
25.0
  3
romans.shx
  4

  0
STYLE
  5
73F2
330
557D
100
AcDbSymbolTableRecord
100
AcDbTextStyleTableRecord
  2
ACISOGDT
 70
     0
 40
0.0
 41
1.0
 50
0.0
 71
     0
 42
0.2
  3
amgdt.shx
  4

  0
ENDTAB
  0
TABLE
  2
VIEW
  5
5580
330
0
100
AcDbSymbolTable
 70
     1
  0
ENDTAB
  0
TABLE
  2
UCS
  5
5581
330
0
100
AcDbSymbolTable
 70
     0
  0
ENDTAB
  0
TABLE
  2
APPID
  5
5583
330
0
100
AcDbSymbolTable
 70
    27
  0
APPID
  5
55D0
330
5583
100
AcDbSymbolTableRecord
100
AcDbRegAppTableRecord
  2
ACAD
 70
     0
  0
APPID
  5
55D7
330
5583
100
AcDbSymbolTableRecord
100
AcDbRegAppTableRecord
  2
ACADANNOTATIVE
 70
     0
  0
APPID
  5
5606
330
5583
100
AcDbSymbolTableRecord
100
AcDbRegAppTableRecord
  2
ACAD_MLEADERVER
 70
     0
  0
APPID
  5
5607
330
5583
100
AcDbSymbolTableRecord
100
AcDbRegAppTableRecord
  2
ACAD_EXEMPT_FROM_CAD_STANDARDS
 70
     0
  0
APPID
  5
5608
330
5583
100
AcDbSymbolTableRecord
100
AcDbRegAppTableRecord
  2
ACAECLAYERSTANDARD
 70
     0
  0
APPID
  5
5609
330
5583
100
AcDbSymbolTableRecord
100
AcDbRegAppTableRecord
  2
ACAD_DSTYLE_DIMTEXT_FILL
 70
     0
  0
APPID
  5
560A
330
5583
100
AcDbSymbolTableRecord
100
AcDbRegAppTableRecord
  2
ACAD_DSTYLE_DIMEXT_LENGTH
 70
     0
  0
APPID
  5
560B
330
5583
100
AcDbSymbolTableRecord
100
AcDbRegAppTableRecord
  2
ACAD_DSTYLE_DIMEXT_ENABLED
 70
     0
  0
APPID
  5
560C
330
5583
100
AcDbSymbolTableRecord
100
AcDbRegAppTableRecord
  2
ACAD_DSTYLE_DIM_LINETYPE
 70
     0
  0
APPID
  5
560D
330
5583
100
AcDbSymbolTableRecord
100
AcDbRegAppTableRecord
  2
ACAD_DSTYLE_DIM_EXT1_LINETYPE
 70
     0
  0
APPID
  5
560E
330
5583
100
AcDbSymbolTableRecord
100
AcDbRegAppTableRecord
  2
ACAD_DSTYLE_DIM_EXT2_LINETYPE
 70
     0
  0
APPID
  5
560F
330
5583
100
AcDbSymbolTableRecord
100
AcDbRegAppTableRecord
  2
ACAD_DSTYLE_DIMJOGGED_JOGA
 70
     0
  0
APPID
  5
5610
330
5583
100
AcDbSymbolTableRecord
100
AcDbRegAppTableRecord
  2
ACAD_DSTYLE_DIMARC_LENGTH_
 70
     0
  0
APPID
  5
5611
330
5583
100
AcDbSymbolTableRecord
100
AcDbRegAppTableRecord
  2
ACAD_PSEXT
 70
     0
  0
APPID
  5
5612
330
5583
100
AcDbSymbolTableRecord
100
AcDbRegAppTableRecord
  2
CONTENTBLOCKICON
 70
     0
  0
APPID
  5
5613
330
5583
100
AcDbSymbolTableRecord
100
AcDbRegAppTableRecord
  2
MCAD_NO_VIS
 70
     0
  0
APPID
  5
5614
330
5583
100
AcDbSymbolTableRecord
100
AcDbRegAppTableRecord
  2
ACAD_TEMP_GRAPHIC
 70
     0
  0
APPID
  5
5615
330
5583
100
AcDbSymbolTableRecord
100
AcDbRegAppTableRecord
  2
AD_DRAW
 70
     0
  0
APPID
  5
5616
330
5583
100
AcDbSymbolTableRecord
100
AcDbRegAppTableRecord
  2
ACATTRIBSERVICES
 70
     0
  0
APPID
  5
5617
330
5583
100
AcDbSymbolTableRecord
100
AcDbRegAppTableRecord
  2
DESIGNERASSEMBLIES
 70
     0
  0
APPID
  5
5618
330
5583
100
AcDbSymbolTableRecord
100
AcDbRegAppTableRecord
  2
ACADM_DIM_EDIT
 70
     0
  0
APPID
  5
5619
330
5583
100
AcDbSymbolTableRecord
100
AcDbRegAppTableRecord
  2
AMDT_DM_ADJ
 70
     0
  0
APPID
  5
561A
330
5583
100
AcDbSymbolTableRecord
100
AcDbRegAppTableRecord
  2
ACAD_DSTYLE_DIMJAG
 70
     0
  0
APPID
  5
561B
330
5583
100
AcDbSymbolTableRecord
100
AcDbRegAppTableRecord
  2
ACAD_DSTYLE_DIMTALN
 70
     0
  0
APPID
  5
56B9
330
5583
100
AcDbSymbolTableRecord
100
AcDbRegAppTableRecord
  2
ACAD_DSTYLE_DIMBREAK
 70
     0
  0
APPID
  5
578E
330
5583
100
AcDbSymbolTableRecord
100
AcDbRegAppTableRecord
  2
ACCMTRANSPARENCY
 70
     0
  0
APPID
  5
67B9
330
5583
100
AcDbSymbolTableRecord
100
AcDbRegAppTableRecord
  2
ACAD_DSTYLE_DIMARC_LENGTH_SYMBOL
 70
     0
  0
ENDTAB
  0
TABLE
  2
DIMSTYLE
  5
5584
330
0
100
AcDbSymbolTable
 70
    16
100
AcDbDimStyleTable
 71
     1
340
561D
  0
DIMSTYLE
105
55D1
330
5584
100
AcDbSymbolTableRecord
100
AcDbDimStyleTableRecord
  2
STANDARD
 70
     0
271
     2
272
     2
279
     2
284
     7
285
     7
286
     7
340
55EA
  0
DIMSTYLE
105
561D
102
{ACAD_REACTORS
330
D74C
102
}
330
5584
100
AcDbSymbolTableRecord
100
AcDbDimStyleTableRecord
  2
AM_ANSI
 70
     0
  4
mm
 41
0.12
 42
0.05
 43
0.5
 44
0.1
 47
0.1
 48
0.1
 78
     7
140
0.12
141
0.0
146
0.71
147
0.06
176
   256
177
   256
178
     2
271
     2
272
     2
279
     2
284
     7
285
     7
286
     7
340
55EA
  0
DIMSTYLE
105
561E
330
5584
100
AcDbSymbolTableRecord
100
AcDbDimStyleTableRecord
  2
AM_ANSI$3
 70
     0
  4
mm
 41
0.12
 42
0.05
 43
0.5
 44
0.1
 47
0.1
 48
0.1
 78
     7
140
0.12
141
0.0
146
0.71
147
0.06
176
   256
177
   256
178
     2
271
     2
272
     2
279
     2
284
     7
285
     7
286
     7
340
55EA
  0
DIMSTYLE
105
561F
330
5584
100
AcDbSymbolTableRecord
100
AcDbDimStyleTableRecord
  2
AM_ANSI$4
 70
     0
  4
mm
 41
0.12
 42
0.05
 43
0.5
 44
0.1
 47
0.1
 48
0.1
 78
     7
140
0.12
141
0.0
146
0.71
147
0.06
176
   256
177
   256
178
     2
271
     2
272
     2
279
     2
284
     7
285
     7
286
     7
340
55EA
  0
DIMSTYLE
105
5620
330
5584
100
AcDbSymbolTableRecord
100
AcDbDimStyleTableRecord
  2
AM_ANSI$7
 70
     0
  4
mm
 41
0.12
 42
0.05
 43
0.5
 44
0.1
 47
0.1
 48
0.1
 78
     7
140
0.12
141
0.0
146
0.71
147
0.06
176
   256
177
   256
178
     2
271
     2
272
     2
279
     2
284
     7
285
     7
286
     7
340
55EA
  0
DIMSTYLE
105
5621
330
5584
100
AcDbSymbolTableRecord
100
AcDbDimStyleTableRecord
  2
AM_ANSI$SF
 70
     0
  4
mm
 41
0.12
 42
0.05
 43
0.5
 44
0.1
 47
0.1
 48
0.1
 75
     1
 76
     1
 78
     7
140
0.12
141
0.0
146
0.71
147
0.06
176
   256
177
   256
178
     2
271
     2
272
     2
279
     2
284
     7
285
     7
286
     7
340
55EA
  0
DIMSTYLE
105
5622
330
5584
100
AcDbSymbolTableRecord
100
AcDbDimStyleTableRecord
  2
AM_ANSI$SH
 70
     0
  4
mm
 41
0.12
 42
0.05
 43
0.5
 44
0.1
 47
0.1
 48
0.1
 75
     1
 76
     1
 78
     7
140
0.12
141
0.0
146
0.71
147
0.06
173
     1
176
   256
177
   256
178
     2
271
     2
272
     2
279
     2
284
     7
285
     7
286
     7
340
55EA
  0
DIMSTYLE
105
5786
102
{ACAD_REACTORS
330
6638
330
663C
330
6637
330
6BA5
330
8429
330
845F
330
D57A
102
}
330
5584
100
AcDbSymbolTableRecord
100
AcDbDimStyleTableRecord
  2
Default (ANSI)
 70
     0
 40
16.66666666666667
 41
2.5
 42
1.587499999999999
 43
5.999999999999999
 44
3.174999999999998
 45
0.00000001
 46
10.0
 79
     1
140
3.048000097274778
143
1.0
147
0.8
171
     1
176
   256
177
   256
178
   256
271
     2
272
     2
274
     1
284
     4
285
     4
340
5784
371
    -1
372
    -1
  0
DIMSTYLE
105
73F3
330
5584
100
AcDbSymbolTableRecord
100
AcDbDimStyleTableRecord
  2
AM_ISO
 70
     0
  4
"
 41
3.5
 42
1.0
 43
10.0
 44
1.0
 47
0.1
 48
0.1
 73
     0
 74
     0
 77
     1
 78
     8
 79
     2
140
3.5
141
0.0
143
0.0393701
146
0.71
147
1.5
172
     1
176
   256
177
   256
178
     2
271
     2
272
     3
274
     4
283
     0
284
     8
340
55CF
371
    -1
372
    -1
1001
ACAD_DSTYLE_DIMJAG
1070
   388
1040
1.5
1001
ACAD_DSTYLE_DIMBREAK
1070
   391
1040
3.75
1001
ACAD_DSTYLE_DIMARC_LENGTH_SYMBOL
1070
   379
1070
     1
1001
ACAD_DSTYLE_DIM_LINETYPE
1070
   380
1005
55D4
1001
ACAD_DSTYLE_DIM_EXT1_LINETYPE
1070
   381
1005
55D4
1001
ACAD_DSTYLE_DIM_EXT2_LINETYPE
1070
   382
1005
55D4
  0
DIMSTYLE
105
73F4
330
5584
100
AcDbSymbolTableRecord
100
AcDbDimStyleTableRecord
  2
AM_ISO$3
 70
     0
  4
"
 41
3.5
 42
1.0
 43
10.0
 44
1.0
 47
0.1
 48
0.1
 73
     0
 77
     1
 78
     8
 79
     2
140
3.5
141
0.0
143
0.0393701
146
0.71
147
1.5
176
   256
177
   256
178
     2
271
     2
272
     3
274
     4
283
     0
284
     8
288
     1
289
     0
340
55CF
371
    -1
372
    -1
1001
ACAD_DSTYLE_DIMBREAK
1070
   391
1040
3.75
1001
ACAD_DSTYLE_DIMJAG
1070
   388
1040
1.5
1001
ACAD_DSTYLE_DIMARC_LENGTH_SYMBOL
1070
   379
1070
     1
1001
ACAD_DSTYLE_DIM_LINETYPE
1070
   380
1005
55D4
1001
ACAD_DSTYLE_DIM_EXT1_LINETYPE
1070
   381
1005
55D4
1001
ACAD_DSTYLE_DIM_EXT2_LINETYPE
1070
   382
1005
55D4
  0
DIMSTYLE
105
73F5
330
5584
100
AcDbSymbolTableRecord
100
AcDbDimStyleTableRecord
  2
AM_ISO$4
 70
     0
  4
"
 41
3.5
 42
1.0
 43
10.0
 44
1.0
 47
0.1
 48
0.1
 73
     0
 77
     1
 78
     8
 79
     2
140
3.5
141
0.0
143
0.0393701
146
0.71
147
1.5
176
   256
177
   256
178
     2
271
     2
272
     3
274
     4
283
     0
284
     8
288
     1
289
     0
340
55CF
371
    -1
372
    -1
1001
ACAD_DSTYLE_DIMBREAK
1070
   391
1040
3.75
1001
ACAD_DSTYLE_DIMJAG
1070
   388
1040
1.5
1001
ACAD_DSTYLE_DIMARC_LENGTH_SYMBOL
1070
   379
1070
     1
1001
ACAD_DSTYLE_DIM_LINETYPE
1070
   380
1005
55D4
1001
ACAD_DSTYLE_DIM_EXT1_LINETYPE
1070
   381
1005
55D4
1001
ACAD_DSTYLE_DIM_EXT2_LINETYPE
1070
   382
1005
55D4
  0
DIMSTYLE
105
73F6
330
5584
100
AcDbSymbolTableRecord
100
AcDbDimStyleTableRecord
  2
AM_ISO$6
 70
     0
  4
"
 41
3.5
 42
1.0
 43
10.0
 44
1.0
 47
0.1
 48
0.1
 73
     0
 74
     0
 78
     8
 79
     2
140
3.5
141
0.0
143
0.0393701
146
0.71
147
1.5
172
     1
176
   256
177
   256
178
     2
271
     2
272
     3
274
     4
283
     0
284
     8
340
55CF
371
    -1
372
    -1
1001
ACAD_DSTYLE_DIMBREAK
1070
   391
1040
3.75
1001
ACAD_DSTYLE_DIMJAG
1070
   388
1040
1.5
1001
ACAD_DSTYLE_DIMARC_LENGTH_SYMBOL
1070
   379
1070
     1
1001
ACAD_DSTYLE_DIM_LINETYPE
1070
   380
1005
55D4
1001
ACAD_DSTYLE_DIM_EXT1_LINETYPE
1070
   381
1005
55D4
1001
ACAD_DSTYLE_DIM_EXT2_LINETYPE
1070
   382
1005
55D4
  0
DIMSTYLE
105
73F7
330
5584
100
AcDbSymbolTableRecord
100
AcDbDimStyleTableRecord
  2
AM_ISO$7
 70
     0
  4
"
 41
3.5
 42
1.0
 43
10.0
 44
1.0
 47
0.1
 48
0.1
 73
     0
 74
     0
 77
     1
 78
     8
 79
     2
140
3.5
141
0.0
143
0.0393701
146
0.71
147
1.5
172
     1
176
   256
177
   256
178
     2
271
     2
272
     3
274
     4
283
     0
284
     8
340
55CF
371
    -1
372
    -1
1001
ACAD_DSTYLE_DIMBREAK
1070
   391
1040
3.75
1001
ACAD_DSTYLE_DIMJAG
1070
   388
1040
1.5
1001
ACAD_DSTYLE_DIMARC_LENGTH_SYMBOL
1070
   379
1070
     1
1001
ACAD_DSTYLE_DIM_LINETYPE
1070
   380
1005
55D4
1001
ACAD_DSTYLE_DIM_EXT1_LINETYPE
1070
   381
1005
55D4
1001
ACAD_DSTYLE_DIM_EXT2_LINETYPE
1070
   382
1005
55D4
  0
DIMSTYLE
105
73F8
330
5584
100
AcDbSymbolTableRecord
100
AcDbDimStyleTableRecord
  2
AM_ISO$SF
 70
     0
  4
"
 41
3.5
 42
1.0
 43
10.0
 44
1.0
 47
0.1
 48
0.1
 73
     0
 74
     0
 75
     1
 76
     1
 77
     1
 78
     8
 79
     2
140
3.5
141
0.0
143
0.0393701
146
0.71
147
1.5
172
     1
176
   256
177
   256
178
     2
271
     2
272
     3
274
     4
283
     0
284
     8
340
55CF
371
    -1
372
    -1
1001
ACAD_DSTYLE_DIMBREAK
1070
   391
1040
3.75
1001
ACAD_DSTYLE_DIMJAG
1070
   388
1040
1.5
1001
ACAD_DSTYLE_DIMARC_LENGTH_SYMBOL
1070
   379
1070
     1
1001
ACAD_DSTYLE_DIM_LINETYPE
1070
   380
1005
55D4
1001
ACAD_DSTYLE_DIM_EXT1_LINETYPE
1070
   381
1005
55D4
1001
ACAD_DSTYLE_DIM_EXT2_LINETYPE
1070
   382
1005
55D4
  0
DIMSTYLE
105
73F9
330
5584
100
AcDbSymbolTableRecord
100
AcDbDimStyleTableRecord
  2
AM_ISO$SH
 70
     0
  4
"
 41
3.5
 42
1.0
 43
10.0
 44
1.0
 47
0.1
 48
0.1
 73
     0
 74
     0
 75
     1
 76
     1
 77
     1
 78
     8
 79
     2
140
3.5
141
0.0
143
0.0393701
144
2.0
146
0.71
147
1.5
172
     1
173
     1
176
   256
177
   256
178
     2
271
     2
272
     3
274
     4
283
     0
284
     8
340
55CF
343
73EC
371
    -1
372
    -1
1001
ACAD_DSTYLE_DIMBREAK
1070
   391
1040
3.75
1001
ACAD_DSTYLE_DIMJAG
1070
   388
1040
1.5
1001
ACAD_DSTYLE_DIMARC_LENGTH_SYMBOL
1070
   379
1070
     1
1001
ACAD_DSTYLE_DIM_LINETYPE
1070
   380
1005
55D4
1001
ACAD_DSTYLE_DIM_EXT1_LINETYPE
1070
   381
1005
55D4
1001
ACAD_DSTYLE_DIM_EXT2_LINETYPE
1070
   382
1005
55D4
  0
ENDTAB
  0
TABLE
  2
BLOCK_RECORD
  5
557B
330
0
100
AcDbSymbolTable
 70
    14
  0
BLOCK_RECORD
  5
55E5
102
{ACAD_XDICTIONARY
360
6ADA
102
}
330
557B
100
AcDbSymbolTableRecord
100
AcDbBlockTableRecord
  2
*Model_Space
340
55E8
  0
BLOCK_RECORD
  5
55E1
330
557B
100
AcDbSymbolTableRecord
100
AcDbBlockTableRecord
  2
*Paper_Space
340
55E4
  0
BLOCK_RECORD
  5
563E
330
557B
100
AcDbSymbolTableRecord
100
AcDbBlockTableRecord
  2
NEW_BLOCK
340
0
102
{BLKREFS
331
3EC0
102
}
  0
BLOCK_RECORD
  5
668D
330
557B
100
AcDbSymbolTableRecord
100
AcDbBlockTableRecord
  2
*D1
340
0
  0
BLOCK_RECORD
  5
669A
330
557B
100
AcDbSymbolTableRecord
100
AcDbBlockTableRecord
  2
*D2
340
0
  0
BLOCK_RECORD
  5
66A7
330
557B
100
AcDbSymbolTableRecord
100
AcDbBlockTableRecord
  2
*D3
340
0
  0
BLOCK_RECORD
  5
66B4
330
557B
100
AcDbSymbolTableRecord
100
AcDbBlockTableRecord
  2
*D4
340
0
  0
BLOCK_RECORD
  5
66CE
330
557B
100
AcDbSymbolTableRecord
100
AcDbBlockTableRecord
  2
*D5
340
0
  0
BLOCK_RECORD
  5
66F5
330
557B
100
AcDbSymbolTableRecord
100
AcDbBlockTableRecord
  2
*D6
340
0
  0
BLOCK_RECORD
  5
6BA6
330
557B
100
AcDbSymbolTableRecord
100
AcDbBlockTableRecord
  2
*D7
340
0
  0
BLOCK_RECORD
  5
73EC
330
557B
100
AcDbSymbolTableRecord
100
AcDbBlockTableRecord
  2
GENAXEH
340
0
  0
BLOCK_RECORD
  5
842A
330
557B
100
AcDbSymbolTableRecord
100
AcDbBlockTableRecord
  2
*D9
340
0
  0
BLOCK_RECORD
  5
8460
330
557B
100
AcDbSymbolTableRecord
100
AcDbBlockTableRecord
  2
*D10
340
0
  0
BLOCK_RECORD
  5
D57B
330
557B
100
AcDbSymbolTableRecord
100
AcDbBlockTableRecord
  2
*D11
340
0
  0
ENDTAB
  0
ENDSEC
  0
SECTION
  2
BLOCKS
  0
BLOCK
  5
55E6
330
55E5
100
AcDbEntity
  8
0
100
AcDbBlockBegin
  2
*Model_Space
 70
     0
 10
0.0
 20
0.0
 30
0.0
  3
*Model_Space
  1

  0
ENDBLK
  5
55E7
330
55E5
100
AcDbEntity
  8
0
100
AcDbBlockEnd
  0
BLOCK
  5
55E2
330
55E1
100
AcDbEntity
 67
     1
  8
0
100
AcDbBlockBegin
  2
*Paper_Space
 70
     0
 10
0.0
 20
0.0
 30
0.0
  3
*Paper_Space
  1

  0
ENDBLK
  5
55E3
330
55E1
100
AcDbEntity
 67
     1
  8
0
100
AcDbBlockEnd
  0
BLOCK
  5
563F
330
563E
100
AcDbEntity
  8
0
100
AcDbBlockBegin
  2
NEW_BLOCK
 70
     0
 10
0.0
 20
0.0
 30
0.0
  3
NEW_BLOCK
  1

  0
TEXT
  5
3EB3
330
563E
100
AcDbEntity
  8
TEXT
100
AcDbText
 10
27.285946821803
 20
25.27142175952417
 30
0.0
 40
40.0
  1
available on request
  7
TITLE3
100
AcDbText
  0
TEXT
  5
3EB4
330
563E
100
AcDbEntity
  8
TEXT
100
AcDbText
 10
27.285946821803
 20
93.84285033095272
 30
0.0
 40
40.0
  1
Certified dimensions
  7
TITLE3
100
AcDbText
  0
TEXT
  5
3EB5
330
563E
100
AcDbEntity
  8
TEXT
100
AcDbText
 10
27.285946821803
 20
162.4142789023812
 30
0.0
 40
40.0
  1
without notice or obligation.
  7
TITLE3
100
AcDbText
  0
TEXT
  5
3EB6
330
563E
100
AcDbEntity
  8
TEXT
100
AcDbText
 10
27.285946821803
 20
230.9857074738097
 30
0.0
 40
40.0
  1
specifications at any time
  7
TITLE3
100
AcDbText
  0
TEXT
  5
3EB7
330
563E
100
AcDbEntity
  8
TEXT
100
AcDbText
 10
27.285946821803
 20
299.5571360452384
 30
0.0
 40
40.0
  1
the right to change 
  7
TITLE3
100
AcDbText
  0
TEXT
  5
3EB8
330
563E
100
AcDbEntity
  8
TEXT
100
AcDbText
 10
27.285946821803
 20
436.6999931880949
 30
0.0
 40
40.0
  1
NOTE
  7
TITLE3
100
AcDbText
  0
TEXT
  5
3EB9
330
563E
100
AcDbEntity
  8
TEXT
100
AcDbText
 10
27.285946821803
 20
368.1285646166668
 30
0.0
 40
40.0
  1
The manufacturer reserves
  7
TITLE3
100
AcDbText
  0
ENDBLK
  5
3EBA
330
563E
100
AcDbEntity
  8
0
100
AcDbBlockEnd
  0
BLOCK
  5
668E
330
668D
100
AcDbEntity
  8
0
100
AcDbBlockBegin
  2
*D1
 70
     1
 10
0.0
 20
0.0
 30
0.0
  3
*D1
  1

  0
LINE
  5
6976
330
668D
100
AcDbEntity
  8
Dimension (ANSI)
440
 16777216
100
AcDbLine
 10
2289.446920008233
 20
3928.968024618539
 30
0.0
 11
2289.446920008233
 21
4481.841063076744
 31
0.0
  0
LINE
  5
6977
330
668D
100
AcDbEntity
  8
Dimension (ANSI)
440
 16777216
100
AcDbLine
 10
4472.24690003449
 20
3928.968024618597
 30
0.0
 11
4472.24690003449
 21
4481.841063076744
 31
0.0
  0
LINE
  5
6978
330
668D
100
AcDbEntity
  8
Dimension (ANSI)
440
 16777216
100
AcDbLine
 10
2331.113586674899
 20
4428.924396410077
 30
0.0
 11
3054.661988463161
 21
4428.924396410077
 31
0.0
  0
LINE
  5
6979
330
668D
100
AcDbEntity
  8
Dimension (ANSI)
440
 16777216
100
AcDbLine
 10
4430.580233367822
 20
4428.924396410077
 30
0.0
 11
3707.031831579563
 21
4428.924396410077
 31
0.0
  0
SOLID
  5
697A
330
668D
100
AcDbEntity
  8
Dimension (ANSI)
440
 16777216
100
AcDbTrace
 10
2331.113586674899
 20
4435.868840854521
 30
0.0
 11
2331.113586674899
 21
4421.979951965631
 31
0.0
 12
2289.446920008233
 22
4428.924396410077
 32
0.0
 13
2289.446920008233
 23
4428.924396410077
 33
0.0
  0
SOLID
  5
697B
330
668D
100
AcDbEntity
  8
Dimension (ANSI)
440
 16777216
100
AcDbTrace
 10
4430.580233367822
 20
4435.868840854521
 30
0.0
 11
4430.580233367822
 21
4421.979951965631
 31
0.0
 12
4472.24690003449
 22
4428.924396410077
 32
0.0
 13
4472.24690003449
 23
4428.924396410077
 33
0.0
  0
MTEXT
  5
697C
330
668D
100
AcDbEntity
  8
Dimension (ANSI)
440
 16777216
100
AcDbMText
 10
3380.846910021361
 20
4467.681147143276
 30
0.0
 40
50.80000162124633
 41
0.0
 71
     2
 72
     1
  1
\A1;2183{\PMTG CTR'S\PFOR OPTIONAL \PSPRING MOUNT KIT}
  7
Note Text (ANSI)
 73
     1
 44
1.0
  0
POINT
  5
697D
330
668D
100
AcDbEntity
  8
Defpoints
 62
     0
440
 16777216
100
AcDbPoint
 10
2289.446920008233
 20
3902.509691285205
 30
0.0
  0
POINT
  5
697E
330
668D
100
AcDbEntity
  8
Defpoints
 62
     0
440
 16777216
100
AcDbPoint
 10
4472.24690003449
 20
3902.509691285263
 30
0.0
  0
POINT
  5
697F
330
668D
100
AcDbEntity
  8
Defpoints
 62
     0
440
 16777216
100
AcDbPoint
 10
4472.24690003449
 20
4428.924396410077
 30
0.0
  0
ENDBLK
  5
668F
330
668D
100
AcDbEntity
  8
0
100
AcDbBlockEnd
  0
BLOCK
  5
669B
330
669A
100
AcDbEntity
  8
0
100
AcDbBlockBegin
  2
*D2
 70
     1
 10
0.0
 20
0.0
 30
0.0
  3
*D2
  1

  0
LINE
  5
D7C1
330
669A
100
AcDbEntity
  8
Dimension (ANSI)
440
 16777216
100
AcDbLine
 10
2250.9885866749
 20
3902.509691285205
 30
0.0
 11
1099.467832322999
 21
3902.509691285205
 31
0.0
  0
LINE
  5
D7C2
330
669A
100
AcDbEntity
  8
Dimension (ANSI)
440
 16777216
100
AcDbLine
 10
2256.968586620368
 20
3096.309691285243
 30
0.0
 11
1099.467832322998
 21
3096.309691285243
 31
0.0
  0
LINE
  5
D7C3
330
669A
100
AcDbEntity
  8
Dimension (ANSI)
440
 16777216
100
AcDbLine
 10
1152.384498989666
 20
3860.843024618539
 30
0.0
 11
1152.384498989666
 21
3825.594612843424
 31
0.0
  0
LINE
  5
D7C4
330
669A
100
AcDbEntity
  8
Dimension (ANSI)
440
 16777216
100
AcDbLine
 10
1152.384498989665
 20
3137.97635795191
 30
0.0
 11
1152.384498989665
 21
3173.224769727021
 31
0.0
  0
SOLID
  5
D7C5
330
669A
100
AcDbEntity
  8
Dimension (ANSI)
440
 16777216
100
AcDbTrace
 10
1145.440054545221
 20
3860.843024618539
 30
0.0
 11
1159.32894343411
 21
3860.843024618539
 31
0.0
 12
1152.384498989666
 22
3902.509691285205
 32
0.0
 13
1152.384498989666
 23
3902.509691285205
 33
0.0
  0
SOLID
  5
D7C6
330
669A
100
AcDbEntity
  8
Dimension (ANSI)
440
 16777216
100
AcDbTrace
 10
1145.440054545221
 20
3137.97635795191
 30
0.0
 11
1159.32894343411
 21
3137.97635795191
 31
0.0
 12
1152.384498989665
 22
3096.309691285243
 32
0.0
 13
1152.384498989665
 23
3096.309691285243
 33
0.0
  0
MTEXT
  5
D7C7
330
669A
100
AcDbEntity
  8
Dimension (ANSI)
440
 16777216
100
AcDbMText
 10
1113.627748256464
 20
3499.409691285223
 30
0.0
 40
50.80000162124632
 41
0.0
 71
     2
 72
     1
  1
\A1;806{\PMTG CTR'S\PFOR OPTIONAL \PSPRING MOUNT KIT}
  7
Note Text (ANSI)
 11
0.0000000000000001
 21
1.0
 31
0.0
 73
     1
 44
1.0
  0
POINT
  5
D7C8
330
669A
100
AcDbEntity
  8
Defpoints
 62
     0
440
 16777216
100
AcDbPoint
 10
2277.446920008233
 20
3902.509691285205
 30
0.0
  0
POINT
  5
D7C9
330
669A
100
AcDbEntity
  8
Defpoints
 62
     0
440
 16777216
100
AcDbPoint
 10
2283.426919953702
 20
3096.309691285243
 30
0.0
  0
POINT
  5
D7CA
330
669A
100
AcDbEntity
  8
Defpoints
 62
     0
440
 16777216
100
AcDbPoint
 10
1152.384498989665
 20
3096.309691285243
 30
0.0
  0
ENDBLK
  5
669C
330
669A
100
AcDbEntity
  8
0
100
AcDbBlockEnd
  0
BLOCK
  5
66A8
330
66A7
100
AcDbEntity
  8
0
100
AcDbBlockBegin
  2
*D3
 70
     1
 10
0.0
 20
0.0
 30
0.0
  3
*D3
  1

  0
LINE
  5
732C
330
66A7
100
AcDbEntity
  8
Dimension (ANSI)
100
AcDbLine
 10
2267.143637896702
 20
1330.99340273122
 30
0.0
 11
2267.105679015622
 21
1050.401600382295
 31
0.0
  0
LINE
  5
732D
330
66A7
100
AcDbEntity
  8
Dimension (ANSI)
100
AcDbLine
 10
4570.595046975324
 20
1409.399317387912
 30
0.0
 11
4570.546439068707
 21
1050.089987451501
 31
0.0
  0
LINE
  5
732E
330
66A7
100
AcDbEntity
  8
Dimension (ANSI)
100
AcDbLine
 10
2308.779503947213
 20
1103.312629835456
 30
0.0
 11
3350.5519153397
 21
1103.171697296637
 31
0.0
  0
LINE
  5
732F
330
66A7
100
AcDbEntity
  8
Dimension (ANSI)
100
AcDbLine
 10
4528.88693142951
 20
1103.01229036324
 30
0.0
 11
3522.112878101353
 21
1103.148488271537
 31
0.0
  0
SOLID
  5
7330
330
66A7
100
AcDbEntity
  8
Dimension (ANSI)
100
AcDbTrace
 10
2308.780443402095
 20
1110.257074216355
 30
0.0
 11
2308.778564492332
 21
1096.368185454557
 31
0.0
 12
2267.112837661819
 22
1103.318266564745
 32
0.0
 13
2267.112837661819
 23
1103.318266564745
 33
0.0
  0
SOLID
  5
7331
330
66A7
100
AcDbEntity
  8
Dimension (ANSI)
100
AcDbTrace
 10
4528.887870884392
 20
1109.956734744139
 30
0.0
 11
4528.885991974629
 21
1096.067845982341
 31
0.0
 12
4570.553597714904
 22
1103.006653633952
 32
0.0
 13
4570.553597714904
 23
1103.006653633952
 33
0.0
  0
MTEXT
  5
7332
330
66A7
100
AcDbEntity
  8
Dimension (ANSI)
100
AcDbMText
 10
3436.332396720526
 20
1103.160092784087
 30
0.0
 40
50.80000162124632
 41
0.0
 71
     5
 72
     1
  1
\A1;2303
  7
Note Text (ANSI)
 73
     1
 44
1.0
  0
POINT
  5
7333
330
66A7
100
AcDbEntity
  8
Defpoints
 62
     0
100
AcDbPoint
 10
2267.147217219801
 20
1357.451735822445
 30
0.0
  0
POINT
  5
7334
330
66A7
100
AcDbEntity
  8
Defpoints
 62
     0
100
AcDbPoint
 10
4570.598626298422
 20
1435.857650479138
 30
0.0
  0
POINT
  5
7335
330
66A7
100
AcDbEntity
  8
Defpoints
 62
     0
100
AcDbPoint
 10
4570.553597714904
 20
1103.006653633952
 30
0.0
  0
ENDBLK
  5
66A9
330
66A7
100
AcDbEntity
  8
0
100
AcDbBlockEnd
  0
BLOCK
  5
66B5
330
66B4
100
AcDbEntity
  8
0
100
AcDbBlockBegin
  2
*D4
 70
     1
 10
0.0
 20
0.0
 30
0.0
  3
*D4
  1

  0
LINE
  5
6994
330
66B4
100
AcDbEntity
  8
Dimension (ANSI)
100
AcDbLine
 10
2267.143637896703
 20
1330.99340273122
 30
0.0
 11
2267.123850890062
 21
1184.727978183174
 31
0.0
  0
LINE
  5
6995
330
66B4
100
AcDbEntity
  8
Dimension (ANSI)
100
AcDbLine
 10
4500.543617459825
 20
1330.691265022606
 30
0.0
 11
4500.523830453184
 21
1184.42584047452
 31
0.0
  0
LINE
  5
6996
330
66B4
100
AcDbEntity
  8
Dimension (ANSI)
100
AcDbLine
 10
2308.797675821653
 20
1237.639007636336
 30
0.0
 11
3298.050517936996
 21
1237.505180023848
 31
0.0
  0
LINE
  5
6997
330
66B4
100
AcDbEntity
  8
Dimension (ANSI)
100
AcDbLine
 10
4458.864322813986
 20
1237.34814338626
 30
0.0
 11
3469.611480698649
 21
1237.481970998748
 31
0.0
  0
SOLID
  5
6998
330
66B4
100
AcDbEntity
  8
Dimension (ANSI)
100
AcDbTrace
 10
2308.798615276534
 20
1244.583452017235
 30
0.0
 11
2308.796736366771
 21
1230.694563255437
 31
0.0
 12
2267.131009536258
 22
1237.644644365625
 32
0.0
 13
2267.131009536258
 23
1237.644644365625
 33
0.0
  0
SOLID
  5
6999
330
66B4
100
AcDbEntity
  8
Dimension (ANSI)
100
AcDbTrace
 10
4458.865262268868
 20
1244.292587767159
 30
0.0
 11
4458.863383359104
 21
1230.403699005361
 31
0.0
 12
4500.530989099381
 22
1237.342506656971
 32
0.0
 13
4500.530989099381
 23
1237.342506656971
 33
0.0
  0
MTEXT
  5
699A
330
66B4
100
AcDbEntity
  8
Dimension (ANSI)
100
AcDbMText
 10
3383.830999317823
 20
1237.493575511298
 30
0.0
 40
50.80000162124633
 41
0.0
 71
     5
 72
     1
  1
\A1;2233
  7
Note Text (ANSI)
 73
     1
 44
1.0
  0
POINT
  5
699B
330
66B4
100
AcDbEntity
  8
Defpoints
 62
     0
100
AcDbPoint
 10
2267.147217219802
 20
1357.451735822445
 30
0.0
  0
POINT
  5
699C
330
66B4
100
AcDbEntity
  8
Defpoints
 62
     0
100
AcDbPoint
 10
4500.547196782924
 20
1357.149598113831
 30
0.0
  0
POINT
  5
699D
330
66B4
100
AcDbEntity
  8
Defpoints
 62
     0
100
AcDbPoint
 10
4500.530989099381
 20
1237.342506656971
 30
0.0
  0
ENDBLK
  5
66B6
330
66B4
100
AcDbEntity
  8
0
100
AcDbBlockEnd
  0
BLOCK
  5
66CF
330
66CE
100
AcDbEntity
  8
0
100
AcDbBlockBegin
  2
*D5
 70
     1
 10
0.0
 20
0.0
 30
0.0
  3
*D5
  1

  0
LINE
  5
69A8
330
66CE
100
AcDbEntity
  8
Dimension (ANSI)
440
 16777216
100
AcDbLine
 10
2539.756378404039
 20
3940.968024618415
 30
0.0
 11
2539.756378404039
 21
4054.014841886073
 31
0.0
  0
LINE
  5
69A9
330
66CE
100
AcDbEntity
  8
Dimension (ANSI)
440
 16777216
100
AcDbLine
 10
4246.235080004772
 20
3940.968024618822
 30
0.0
 11
4246.235080004772
 21
4054.014841886073
 31
0.0
  0
LINE
  5
69AA
330
66CE
100
AcDbEntity
  8
Dimension (ANSI)
440
 16777216
100
AcDbLine
 10
2581.423045070705
 20
4001.098175219406
 30
0.0
 11
3308.375220996929
 21
4001.098175219406
 31
0.0
  0
LINE
  5
69AB
330
66CE
100
AcDbEntity
  8
Dimension (ANSI)
440
 16777216
100
AcDbLine
 10
4204.568413338106
 20
4001.098175219406
 30
0.0
 11
3477.616237411875
 21
4001.098175219406
 31
0.0
  0
SOLID
  5
69AC
330
66CE
100
AcDbEntity
  8
Dimension (ANSI)
440
 16777216
100
AcDbTrace
 10
2581.423045070705
 20
4008.042619663851
 30
0.0
 11
2581.423045070705
 21
3994.153730774962
 31
0.0
 12
2539.756378404039
 22
4001.098175219406
 32
0.0
 13
2539.756378404039
 23
4001.098175219406
 33
0.0
  0
SOLID
  5
69AD
330
66CE
100
AcDbEntity
  8
Dimension (ANSI)
440
 16777216
100
AcDbTrace
 10
4204.568413338106
 20
4008.042619663851
 30
0.0
 11
4204.568413338106
 21
3994.153730774962
 31
0.0
 12
4246.235080004772
 22
4001.098175219406
 32
0.0
 13
4246.235080004772
 23
4001.098175219406
 33
0.0
  0
MTEXT
  5
69AE
330
66CE
100
AcDbEntity
  8
Dimension (ANSI)
440
 16777216
100
AcDbMText
 10
3392.995729204403
 20
4001.098175219406
 30
0.0
 40
50.80000162124633
 41
0.0
 71
     5
 72
     1
  1
\A1;1706
  7
Note Text (ANSI)
 73
     1
 44
1.0
  0
POINT
  5
69AF
330
66CE
100
AcDbEntity
  8
Defpoints
 62
     0
440
 16777216
100
AcDbPoint
 10
2539.756378404039
 20
3914.509691285081
 30
0.0
  0
POINT
  5
69B0
330
66CE
100
AcDbEntity
  8
Defpoints
 62
     0
440
 16777216
100
AcDbPoint
 10
4246.235080004772
 20
3914.509691285488
 30
0.0
  0
POINT
  5
69B1
330
66CE
100
AcDbEntity
  8
Defpoints
 62
     0
440
 16777216
100
AcDbPoint
 10
4246.235080004772
 20
4001.098175219406
 30
0.0
  0
ENDBLK
  5
66D0
330
66CE
100
AcDbEntity
  8
0
100
AcDbBlockEnd
  0
BLOCK
  5
66F6
330
66F5
100
AcDbEntity
  8
0
100
AcDbBlockBegin
  2
*D6
 70
     1
 10
0.0
 20
0.0
 30
0.0
  3
*D6
  1

  0
LINE
  5
D570
330
66F5
100
AcDbEntity
  8
Dimension (ANSI)
440
 16777216
100
AcDbLine
 10
8162.752422270115
 20
1652.101176321039
 30
0.0
 11
7929.010865927851
 21
1652.101176321039
 31
0.0
  0
LINE
  5
D571
330
66F5
100
AcDbEntity
  8
Dimension (ANSI)
440
 16777216
100
AcDbLine
 10
8162.752422269248
 20
1939.984804935193
 30
0.0
 11
7929.010865927851
 21
1939.984804935193
 31
0.0
  0
LINE
  5
D572
330
66F5
100
AcDbEntity
  8
Dimension (ANSI)
440
 16777216
100
AcDbLine
 10
7981.927532594518
 20
1693.767842987705
 30
0.0
 11
7981.927532594518
 21
1728.617378872665
 31
0.0
  0
LINE
  5
D573
330
66F5
100
AcDbEntity
  8
Dimension (ANSI)
440
 16777216
100
AcDbLine
 10
7981.927532594518
 20
1898.318138268526
 30
0.0
 11
7981.927532594518
 21
1863.468602383504
 31
0.0
  0
SOLID
  5
D574
330
66F5
100
AcDbEntity
  8
Dimension (ANSI)
440
 16777216
100
AcDbTrace
 10
7974.983088150075
 20
1693.767842987705
 30
0.0
 11
7988.871977038963
 21
1693.767842987705
 31
0.0
 12
7981.927532594518
 22
1652.101176321039
 32
0.0
 13
7981.927532594518
 23
1652.101176321039
 33
0.0
  0
SOLID
  5
D575
330
66F5
100
AcDbEntity
  8
Dimension (ANSI)
440
 16777216
100
AcDbTrace
 10
7974.983088150075
 20
1898.318138268526
 30
0.0
 11
7988.871977038963
 21
1898.318138268526
 31
0.0
 12
7981.927532594518
 22
1939.984804935193
 32
0.0
 13
7981.927532594518
 23
1939.984804935193
 33
0.0
  0
MTEXT
  5
D576
330
66F5
100
AcDbEntity
  8
Dimension (ANSI)
440
 16777216
100
AcDbMText
 10
7981.927532594518
 20
1796.042990628086
 30
0.0
 40
50.80000162124632
 41
0.0
 71
     5
 72
     1
  1
\A1;288
  7
Note Text (ANSI)
 11
0.0000000000000001
 21
1.0
 31
0.0
 73
     1
 44
1.0
  0
POINT
  5
D577
330
66F5
100
AcDbEntity
  8
Defpoints
 62
     0
440
 16777216
100
AcDbPoint
 10
8189.210755603447
 20
1652.101176321039
 30
0.0
  0
POINT
  5
D578
330
66F5
100
AcDbEntity
  8
Defpoints
 62
     0
440
 16777216
100
AcDbPoint
 10
8189.210755602578
 20
1939.984804935193
 30
0.0
  0
POINT
  5
D579
330
66F5
100
AcDbEntity
  8
Defpoints
 62
     0
440
 16777216
100
AcDbPoint
 10
7981.927532594518
 20
1939.984804935193
 30
0.0
  0
ENDBLK
  5
66F7
330
66F5
100
AcDbEntity
  8
0
100
AcDbBlockEnd
  0
BLOCK
  5
6BA7
330
6BA6
100
AcDbEntity
  8
0
100
AcDbBlockBegin
  2
*D7
 70
     1
 10
0.0
 20
0.0
 30
0.0
  3
*D7
  1

  0
LINE
  5
6BBE
330
6BA6
100
AcDbEntity
  8
Dimension (ANSI)
440
 16777216
100
AcDbLine
 10
2334.683272092466
 20
3057.85118116539
 30
0.0
 11
2334.663485085826
 21
2911.585756617345
 31
0.0
  0
LINE
  5
6BBF
330
6BA6
100
AcDbEntity
  8
Dimension (ANSI)
440
 16777216
100
AcDbLine
 10
4435.722159827361
 20
3057.549043456764
 30
0.0
 11
4435.702375243071
 21
2911.30152491596
 31
0.0
  0
LINE
  5
6BC0
330
6BA6
100
AcDbEntity
  8
Dimension (ANSI)
440
 16777216
100
AcDbLine
 10
2376.337310017416
 20
2964.496786070507
 30
0.0
 11
3366.443073583756
 21
2964.362843073521
 31
0.0
  0
LINE
  5
6BC1
330
6BA6
100
AcDbEntity
  8
Dimension (ANSI)
440
 16777216
100
AcDbLine
 10
4394.042867603873
 20
2964.223827827699
 30
0.0
 11
3536.298193443418
 21
2964.339864817416
 31
0.0
  0
SOLID
  5
6BC2
330
6BA6
100
AcDbEntity
  8
Dimension (ANSI)
440
 16777216
100
AcDbTrace
 10
2376.338249472298
 20
2971.441230451405
 30
0.0
 11
2376.336370562535
 21
2957.552341689608
 31
0.0
 12
2334.670643732022
 22
2964.502422799796
 32
0.0
 13
2334.670643732022
 23
2964.502422799796
 33
0.0
  0
SOLID
  5
6BC3
330
6BA6
100
AcDbEntity
  8
Dimension (ANSI)
440
 16777216
100
AcDbTrace
 10
4394.043807058756
 20
2971.168272208598
 30
0.0
 11
4394.041928148991
 21
2957.2793834468
 31
0.0
 12
4435.709533889268
 22
2964.218191098412
 32
0.0
 13
4435.709533889268
 23
2964.218191098412
 33
0.0
  0
MTEXT
  5
6BC4
330
6BA6
100
AcDbEntity
  8
Dimension (ANSI)
440
 16777216
100
AcDbMText
 10
3451.370633513587
 20
2964.351353945469
 30
0.0
 40
50.80000162124633
 41
0.0
 71
     5
 72
     1
  1
\A1;2101
  7
Note Text (ANSI)
 73
     1
 44
1.0
  0
POINT
  5
6BC5
330
6BA6
100
AcDbEntity
  8
Defpoints
 62
     0
440
 16777216
100
AcDbPoint
 10
2334.686851415565
 20
3084.309514256615
 30
0.0
  0
POINT
  5
6BC6
330
6BA6
100
AcDbEntity
  8
Defpoints
 62
     0
440
 16777216
100
AcDbPoint
 10
4435.72573915046
 20
3084.007376547989
 30
0.0
  0
POINT
  5
6BC7
330
6BA6
100
AcDbEntity
  8
Defpoints
 62
     0
440
 16777216
100
AcDbPoint
 10
4435.709533889268
 20
2964.218191098412
 30
0.0
  0
ENDBLK
  5
6BA8
330
6BA6
100
AcDbEntity
  8
0
100
AcDbBlockEnd
  0
BLOCK
  5
73ED
330
73EC
100
AcDbEntity
  8
0
100
AcDbBlockBegin
  2
GENAXEH
 70
     0
 10
0.0
 20
0.0
 30
0.0
  3
GENAXEH
  1

  0
LINE
  5
73EE
330
73EC
100
AcDbEntity
  8
0
100
AcDbLine
 10
-1.0
 20
0.0
 30
0.0
 11
1.0
 21
0.0
 31
0.0
  0
ENDBLK
  5
73EF
330
73EC
100
AcDbEntity
  8
0
100
AcDbBlockEnd
  0
BLOCK
  5
842B
330
842A
100
AcDbEntity
  8
0
100
AcDbBlockBegin
  2
*D9
 70
     1
 10
0.0
 20
0.0
 30
0.0
  3
*D9
  1

  0
LINE
  5
D775
330
842A
100
AcDbEntity
  8
Dimension (ANSI)
440
 16777216
100
AcDbLine
 10
2255.143655664525
 20
1331.124733116086
 30
0.0
 11
2255.108936084329
 21
1074.477821867128
 31
0.0
  0
LINE
  5
D776
330
842A
100
AcDbEntity
  8
Dimension (ANSI)
440
 16777216
100
AcDbLine
 10
4570.57357635759
 20
1407.280362688542
 30
0.0
 11
4570.528511954585
 21
1074.164588424114
 31
0.0
  0
LINE
  5
D777
330
842A
100
AcDbEntity
  8
Dimension (ANSI)
440
 16777216
100
AcDbLine
 10
2296.78276101592
 20
1127.388851320289
 30
0.0
 11
3297.897009843641
 21
1127.253419078859
 31
0.0
  0
LINE
  5
D778
330
842A
100
AcDbEntity
  8
Dimension (ANSI)
440
 16777216
100
AcDbLine
 10
4528.869004315388
 20
1127.086891335853
 30
0.0
 11
3469.765024327651
 21
1127.230168515341
 31
0.0
  0
SOLID
  5
D779
330
842A
100
AcDbEntity
  8
Dimension (ANSI)
440
 16777216
100
AcDbTrace
 10
2296.783700470802
 20
1134.333295701188
 30
0.0
 11
2296.781821561039
 21
1120.44440693939
 31
0.0
 12
2255.116094730526
 22
1127.394488049578
 32
0.0
 13
2255.116094730526
 23
1127.394488049578
 33
0.0
  0
SOLID
  5
D77A
330
842A
100
AcDbEntity
  8
Dimension (ANSI)
440
 16777216
100
AcDbTrace
 10
4528.869943770269
 20
1134.031335716752
 30
0.0
 11
4528.868064860506
 21
1120.142446954954
 31
0.0
 12
4570.535670600781
 22
1127.081254606564
 32
0.0
 13
4570.535670600781
 23
1127.081254606564
 33
0.0
  0
MTEXT
  5
D77B
330
842A
100
AcDbEntity
  8
Dimension (ANSI)
440
 16777216
100
AcDbMText
 10
3383.831017085646
 20
1127.2417937971
 30
0.0
 40
50.80000162124632
 41
0.0
 71
     5
 72
     1
  1
\A1;2315
  7
Note Text (ANSI)
 73
     1
 44
1.0
  0
POINT
  5
D77C
330
842A
100
AcDbEntity
  8
Defpoints
 62
     0
440
 16777216
100
AcDbPoint
 10
2255.147234987623
 20
1357.583066207311
 30
0.0
  0
POINT
  5
D77D
330
842A
100
AcDbEntity
  8
Defpoints
 62
     0
440
 16777216
100
AcDbPoint
 10
4570.577155680689
 20
1433.738695779767
 30
0.0
  0
POINT
  5
D77E
330
842A
100
AcDbEntity
  8
Defpoints
 62
     0
440
 16777216
100
AcDbPoint
 10
4570.535670600781
 20
1127.081254606564
 30
0.0
  0
ENDBLK
  5
842C
330
842A
100
AcDbEntity
  8
0
100
AcDbBlockEnd
  0
BLOCK
  5
8461
330
8460
100
AcDbEntity
  8
0
100
AcDbBlockBegin
  2
*D10
 70
     1
 10
0.0
 20
0.0
 30
0.0
  3
*D10
  1

  0
LINE
  5
D76B
330
8460
100
AcDbEntity
  8
Dimension (ANSI)
440
 16777216
100
AcDbLine
 10
2255.143655664525
 20
1331.124733116086
 30
0.0
 11
2255.123868877496
 21
1184.860931946063
 31
0.0
  0
LINE
  5
D76C
330
8460
100
AcDbEntity
  8
Dimension (ANSI)
440
 16777216
100
AcDbLine
 10
4500.473635228335
 20
1330.82260487715
 30
0.0
 11
4500.453848221694
 21
1184.557180329094
 31
0.0
  0
LINE
  5
D76D
330
8460
100
AcDbEntity
  8
Dimension (ANSI)
440
 16777216
100
AcDbLine
 10
2296.797693809087
 20
1237.771961399224
 30
0.0
 11
3297.89700984364
 21
1237.636531177925
 31
0.0
  0
LINE
  5
D76E
330
8460
100
AcDbEntity
  8
Dimension (ANSI)
440
 16777216
100
AcDbLine
 10
4458.794340582496
 20
1237.479483240833
 30
0.0
 11
3469.76502432765
 21
1237.613280614407
 31
0.0
  0
SOLID
  5
D76F
330
8460
100
AcDbEntity
  8
Dimension (ANSI)
440
 16777216
100
AcDbTrace
 10
2296.798633263969
 20
1244.716405780123
 30
0.0
 11
2296.796754354206
 21
1230.827517018325
 31
0.0
 12
2255.131027523693
 22
1237.777598128513
 32
0.0
 13
2255.131027523693
 23
1237.777598128513
 33
0.0
  0
SOLID
  5
D770
330
8460
100
AcDbEntity
  8
Dimension (ANSI)
440
 16777216
100
AcDbTrace
 10
4458.795280037377
 20
1244.423927621732
 30
0.0
 11
4458.793401127614
 21
1230.535038859934
 31
0.0
 12
4500.461006867891
 22
1237.473846511544
 32
0.0
 13
4500.461006867891
 23
1237.473846511544
 33
0.0
  0
MTEXT
  5
D771
330
8460
100
AcDbEntity
  8
Dimension (ANSI)
440
 16777216
100
AcDbMText
 10
3383.831017085646
 20
1237.624905896166
 30
0.0
 40
50.80000162124632
 41
0.0
 71
     5
 72
     1
  1
\A1;2245
  7
Note Text (ANSI)
 73
     1
 44
1.0
  0
POINT
  5
D772
330
8460
100
AcDbEntity
  8
Defpoints
 62
     0
440
 16777216
100
AcDbPoint
 10
2255.147234987623
 20
1357.583066207311
 30
0.0
  0
POINT
  5
D773
330
8460
100
AcDbEntity
  8
Defpoints
 62
     0
440
 16777216
100
AcDbPoint
 10
4500.477214551434
 20
1357.280937968376
 30
0.0
  0
POINT
  5
D774
330
8460
100
AcDbEntity
  8
Defpoints
 62
     0
440
 16777216
100
AcDbPoint
 10
4500.461006867891
 20
1237.473846511544
 30
0.0
  0
ENDBLK
  5
8462
330
8460
100
AcDbEntity
  8
0
100
AcDbBlockEnd
  0
BLOCK
  5
D57C
330
D57B
100
AcDbEntity
  8
0
100
AcDbBlockBegin
  2
*D11
 70
     1
 10
0.0
 20
0.0
 30
0.0
  3
*D11
  1

  0
LINE
  5
D588
330
D57B
100
AcDbEntity
  8
Dimension (ANSI)
440
 16777216
100
AcDbLine
 10
5793.403609931457
 20
1652.101176321039
 30
0.0
 11
5559.662053589195
 21
1652.101176321039
 31
0.0
  0
LINE
  5
D589
330
D57B
100
AcDbEntity
  8
Dimension (ANSI)
440
 16777216
100
AcDbLine
 10
5793.403609930591
 20
1939.984804935193
 30
0.0
 11
5559.662053589195
 21
1939.984804935193
 31
0.0
  0
LINE
  5
D58A
330
D57B
100
AcDbEntity
  8
Dimension (ANSI)
440
 16777216
100
AcDbLine
 10
5612.578720255863
 20
1693.767842987706
 30
0.0
 11
5612.578720255863
 21
1728.617378872666
 31
0.0
  0
LINE
  5
D58B
330
D57B
100
AcDbEntity
  8
Dimension (ANSI)
440
 16777216
100
AcDbLine
 10
5612.578720255863
 20
1898.318138268526
 30
0.0
 11
5612.578720255863
 21
1863.468602383505
 31
0.0
  0
SOLID
  5
D58C
330
D57B
100
AcDbEntity
  8
Dimension (ANSI)
440
 16777216
100
AcDbTrace
 10
5605.634275811419
 20
1693.767842987706
 30
0.0
 11
5619.523164700307
 21
1693.767842987706
 31
0.0
 12
5612.578720255863
 22
1652.101176321039
 32
0.0
 13
5612.578720255863
 23
1652.101176321039
 33
0.0
  0
SOLID
  5
D58D
330
D57B
100
AcDbEntity
  8
Dimension (ANSI)
440
 16777216
100
AcDbTrace
 10
5605.634275811419
 20
1898.318138268526
 30
0.0
 11
5619.523164700307
 21
1898.318138268526
 31
0.0
 12
5612.578720255863
 22
1939.984804935193
 32
0.0
 13
5612.578720255863
 23
1939.984804935193
 33
0.0
  0
MTEXT
  5
D58E
330
D57B
100
AcDbEntity
  8
Dimension (ANSI)
440
 16777216
100
AcDbMText
 10
5612.578720255863
 20
1796.042990628086
 30
0.0
 40
50.80000162124632
 41
0.0
 71
     5
 72
     1
  1
\A1;288
  7
Note Text (ANSI)
 11
0.0000000000000001
 21
1.0
 31
0.0
 73
     1
 44
1.0
  0
POINT
  5
D58F
330
D57B
100
AcDbEntity
  8
Defpoints
 62
     0
440
 16777216
100
AcDbPoint
 10
5819.861943264791
 20
1652.101176321039
 30
0.0
  0
POINT
  5
D590
330
D57B
100
AcDbEntity
  8
Defpoints
 62
     0
440
 16777216
100
AcDbPoint
 10
5819.861943263925
 20
1939.984804935193
 30
0.0
  0
POINT
  5
D591
330
D57B
100
AcDbEntity
  8
Defpoints
 62
     0
440
 16777216
100
AcDbPoint
 10
5612.578720255863
 20
1939.984804935193
 30
0.0
  0
ENDBLK
  5
D57D
330
D57B
100
AcDbEntity
  8
0
100
AcDbBlockEnd
  0
ENDSEC
  0
SECTION
  2
ENTITIES
  0
TEXT
  5
781
330
55E5
100
AcDbEntity
  8
OVERLAY-A3
100
AcDbText
 10
6078.709999361529
 20
176.5063154598592
 30
0.0
 40
38.4
  1
Date
  7
SIMPLEX
100
AcDbText
  0
TEXT
  5
782
330
55E5
100
AcDbEntity
  8
OVERLAY-A3
100
AcDbText
 10
7053.951837587764
 20
206.3816565211546
 30
0.0
 40
38.4
  1
Revision
 41
0.7812095035934875
  7
SIMPLEX
 72
     5
 11
7222.514528191706
 21
206.3816565211546
 31
0.0
100
AcDbText
  0
LINE
  5
783
330
55E5
100
AcDbEntity
  8
OVERLAY-A3
100
AcDbLine
 10
7035.360089774255
 20
32.52436184100407
 30
0.0
 11
7035.360089774255
 21
268.4062224173722
 31
0.0
  0
LINE
  5
784
330
55E5
100
AcDbEntity
  8
OVERLAY-A3
100
AcDbLine
 10
5571.136376921433
 20
832.524361841004
 30
0.0
 11
5571.136376921433
 21
32.52436184100407
 31
0.0
  0
LINE
  5
785
330
55E5
100
AcDbEntity
  8
OVERLAY-A3
100
AcDbLine
 10
6047.235814610947
 20
32.52436184100407
 30
0.0
 11
6047.235814610947
 21
268.4062224173722
 31
0.0
  0
LINE
  5
786
330
55E5
100
AcDbEntity
  8
OVERLAY-A3
100
AcDbLine
 10
6527.235814610951
 20
32.52436184100407
 30
0.0
 11
6527.235814610951
 21
268.4062224173722
 31
0.0
  0
LINE
  5
787
330
55E5
100
AcDbEntity
  8
OVERLAY-A3
100
AcDbLine
 10
6527.235814610951
 20
148.4765321148388
 30
0.0
 11
5571.136376921433
 21
148.4765321148388
 31
0.0
  0
LINE
  5
788
330
55E5
100
AcDbEntity
  8
OVERLAY-A3
100
AcDbLine
 10
7238.694674170547
 20
268.4062224173722
 30
0.0
 11
5571.136376921433
 21
268.4062224173722
 31
0.0
  0
LINE
  5
789
330
55E5
100
AcDbEntity
  8
OVERLAY-A3
100
AcDbLine
 10
5571.136376921433
 20
32.52436184100407
 30
0.0
 11
7238.218662685183
 21
32.52436184100407
 31
0.0
  0
LINE
  5
78A
330
55E5
100
AcDbEntity
  8
OVERLAY-A3
100
AcDbLine
 10
7238.218662685183
 20
32.52436184100407
 30
0.0
 11
7238.218662685183
 21
832.524361841004
 31
0.0
  0
LINE
  5
78B
330
55E5
100
AcDbEntity
  8
OVERLAY-A3
100
AcDbLine
 10
7238.218662685183
 20
592.524361841004
 30
0.0
 11
5571.136376921433
 21
592.524361841004
 31
0.0
  0
LINE
  5
78C
330
55E5
100
AcDbEntity
  8
OVERLAY-A3
100
AcDbLine
 10
7238.218662685183
 20
832.524361841004
 30
0.0
 11
5571.136376921433
 21
832.524361841004
 31
0.0
  0
TEXT
  5
78D
330
55E5
100
AcDbEntity
  8
OVERLAY-A3
100
AcDbText
 10
5611.347080354975
 20
75.8523541882696
 30
0.0
 40
32.0
  1
Scale
 41
1.370174796565986
  7
SIMPLEX
 72
     5
 11
5772.114256485384
 21
75.8523541882696
 31
0.0
100
AcDbText
  0
TEXT
  5
78E
330
55E5
100
AcDbEntity
  8
OVERLAY-A3
100
AcDbText
 10
5611.347080354975
 20
177.8473320670255
 30
0.0
 40
32.0
  1
Drawn
 41
1.226784410878848
  7
SIMPLEX
 72
     5
 11
5772.114256485384
 21
177.8473320670255
 31
0.0
100
AcDbText
  0
TEXT
  5
78F
330
55E5
100
AcDbEntity
  8
OVERLAY-A3
100
AcDbText
 10
5597.393862980568
 20
766.8044048878073
 30
0.0
 40
32.0
  1
Title
  7
SIMPLEX
 72
     2
 11
5688.822434409139
 21
766.8044048878073
 31
0.0
100
AcDbText
  0
TEXT
  5
790
330
55E5
100
AcDbEntity
  8
OVERLAY-A3
100
AcDbText
 10
6082.854155305638
 20
75.8523541882696
 30
0.0
 40
32.0
  1
Aprvd
 41
1.286627552872916
  7
SIMPLEX
 72
     5
 11
6243.621331436045
 21
75.8523541882696
 31
0.0
100
AcDbText
  0
TEXT
  5
791
330
55E5
100
AcDbEntity
  8
OVERLAY-A3
100
AcDbText
 10
6619.948527551277
 20
205.4058636944319
 30
0.0
 40
32.0
  1
Drawing No.
  7
SIMPLEX
 72
     2
 11
6898.80567040842
 21
205.4058636944319
 31
0.0
100
AcDbText
  0
TEXT
  5
2428
330
55E5
100
AcDbEntity
  8
TEXT
100
AcDbText
 10
6056.594754217431
 20
673.5589071400007
 30
0.0
 40
80.0
  1
ISD 380KBY
  7
TITLE5
 72
     1
 11
6410.880468503144
 21
673.5589071400007
 31
0.0
100
AcDbText
  0
TEXT
  5
2429
330
55E5
100
AcDbEntity
  8
TEXT
100
AcDbText
 10
6548.173929790002
 20
111.1763732836971
 30
0.0
 40
40.0
  1
ISD 380KBY
 41
1.309677419354838
  7
TITLE3
 72
     5
 11
7012.173929790002
 21
111.1763732836971
 31
0.0
100
AcDbText
  0
TEXT
  5
242A
330
55E5
100
AcDbEntity
  8
TEXT
100
AcDbText
 10
6244.173929789997
 20
175.1763732836971
 30
0.0
 40
40.0
  1
15-08-11
 41
0.9020134228188048
  7
TITLE3
 72
     5
 11
6500.173929790001
 21
175.1763732836971
 31
0.0
100
AcDbText
  0
INSERT
  5
3EC0
330
55E5
100
AcDbEntity
  8
TEXT
100
AcDbBlockReference
  2
NEW_BLOCK
 10
864.6418021693898
 20
60.55481171725478
 30
0.0
 41
1.679999999999381
 42
1.679999999999381
 43
1.679999999999381
  0
LINE
  5
636A
330
55E5
100
AcDbEntity
  8
Visible (ANSI)
100
AcDbLine
 10
2539.755783185572
 20
3854.509691285088
 30
0.0
 11
2539.753104611815
 21
3854.509691285084
 31
0.0
  0
LINE
  5
636F
330
55E5
100
AcDbEntity
  8
Visible (ANSI)
100
AcDbLine
 10
2539.756080804884
 20
3914.509691285081
 30
0.0
 11
2539.75591846708
 21
3914.509691285081
 31
0.0
  0
LINE
  5
6370
330
55E5
100
AcDbEntity
  8
Visible (ANSI)
100
AcDbLine
 10
2539.756080804884
 20
3914.509691285081
 30
0.0
 11
2539.756378424227
 21
3914.509691285081
 31
0.0
  0
LINE
  5
6371
330
55E5
100
AcDbEntity
  8
Visible (ANSI)
100
AcDbLine
 10
2539.756080804882
 20
3856.709691285085
 30
0.0
 11
2539.756080804884
 21
3914.509691285081
 31
0.0
  0
LINE
  5
6372
330
55E5
100
AcDbEntity
  8
Visible (ANSI)
100
AcDbLine
 10
2539.755918467078
 20
3856.709691285083
 30
0.0
 11
2539.75591846708
 21
3914.509691285081
 31
0.0
  0
LINE
  5
6373
330
55E5
100
AcDbEntity
  8
Visible (ANSI)
100
AcDbLine
 10
2542.752409447857
 20
3855.709691285235
 30
0.0
 11
2542.749730874099
 21
3855.709691285231
 31
0.0
  0
LINE
  5
6374
330
55E5
100
AcDbEntity
  8
Visible (ANSI)
100
AcDbLine
 10
2516.834701551787
 20
3854.509691285223
 30
0.0
 11
2516.756378634642
 21
3854.50969128508
 31
0.0
  0
ARC
  5
6375
330
55E5
100
AcDbEntity
  8
Visible (ANSI)
100
AcDbCircle
 10
4238.234917740174
 20
3904.509691285488
 30
0.0
 40
2.499999999999911
100
AcDbArc
 50
270.0018602292118
 51
89.9981397207623
  0
CIRCLE
  5
6376
330
55E5
100
AcDbEntity
  8
Visible (ANSI)
100
AcDbCircle
 10
4238.235080077977
 20
3904.509691285488
 30
0.0
 40
2.499999999999837
  0
ARC
  5
6377
330
55E5
100
AcDbEntity
  8
Visible (ANSI)
100
AcDbCircle
 10
4238.234917740178
 20
3866.709691285489
 30
0.0
 40
2.499999999999694
100
AcDbArc
 50
270.0018602299935
 51
89.99813972154397
  0
CIRCLE
  5
6378
330
55E5
100
AcDbEntity
  8
Visible (ANSI)
100
AcDbCircle
 10
4238.235080077986
 20
3866.709691285489
 30
0.0
 40
2.499999999999837
  0
LINE
  5
6379
330
55E5
100
AcDbEntity
  8
Visible (ANSI)
100
AcDbLine
 10
2539.834797999955
 20
3914.509691285221
 30
0.0
 11
2542.035095599127
 21
3914.509691285223
 31
0.0
  0
LINE
  5
637A
330
55E5
100
AcDbEntity
  8
Visible (ANSI)
100
AcDbLine
 10
4246.235080004772
 20
3914.509691285488
 30
0.0
 11
2542.035095599129
 21
3914.509691285223
 31
0.0
  0
LINE
  5
637B
330
55E5
100
AcDbEntity
  8
Visible (ANSI)
100
AcDbLine
 10
4246.235080004781
 20
3856.709691285491
 30
0.0
 11
4246.235080004772
 21
3914.509691285488
 31
0.0
  0
LINE
  5
637C
330
55E5
100
AcDbEntity
  8
Visible (ANSI)
100
AcDbLine
 10
2539.756378424173
 20
3914.509691285079
 30
0.0
 11
2539.834797999952
 21
3914.509691285221
 31
0.0
  0
LINE
  5
637D
330
55E5
100
AcDbEntity
  8
Visible (ANSI)
100
AcDbLine
 10
2539.756378404042
 20
3914.509691285079
 30
0.0
 11
2539.756378404049
 21
3856.709691285085
 31
0.0
  0
LINE
  5
6381
330
55E5
100
AcDbEntity
  8
Visible (ANSI)
100
AcDbLine
 10
2334.686851415558
 20
3142.109514256615
 30
0.0
 11
2334.686851415565
 21
3084.309514256615
 31
0.0
  0
LINE
  5
6383
330
55E5
100
AcDbEntity
  8
Visible (ANSI)
100
AcDbLine
 10
2334.687013753366
 20
3142.109514256615
 30
0.0
 11
2334.687013753372
 21
3084.309514256615
 31
0.0
  0
ELLIPSE
  5
638F
330
55E5
100
AcDbEntity
  8
Visible (ANSI)
100
AcDbEllipse
 10
4435.72587443127
 20
3142.109514257263
 30
0.0
 11
-0.0000000000000988
 21
0.9999949005649103
 31
0.0
210
0.0
220
0.0
230
1.0
 40
0.0001352815060441
 41
1.570619297939277
 42
1.570796327196353
  0
ARC
  5
6390
330
55E5
100
AcDbEntity
  8
Visible (ANSI)
100
AcDbCircle
 10
4427.72557688585
 20
3132.10951425686
 30
0.0
 40
2.499999999999865
100
AcDbArc
 50
270.0018602040426
 51
89.9981396955931
  0
CIRCLE
  5
6391
330
55E5
100
AcDbEntity
  8
Visible (ANSI)
100
AcDbCircle
 10
4427.725739223657
 20
3132.10951425686
 30
0.0
 40
2.499999999999936
  0
ARC
  5
6392
330
55E5
100
AcDbEntity
  8
Visible (ANSI)
100
AcDbCircle
 10
4427.725576885856
 20
3094.309514256861
 30
0.0
 40
2.500000000000009
100
AcDbArc
 50
270.0018601539126
 51
89.99813964546307
  0
CIRCLE
  5
6393
330
55E5
100
AcDbEntity
  8
Visible (ANSI)
100
AcDbCircle
 10
4427.725739223663
 20
3094.309514256861
 30
0.0
 40
2.499999999999936
  0
LINE
  5
6394
330
55E5
100
AcDbEntity
  8
Visible (ANSI)
100
AcDbLine
 10
4435.725739150455
 20
3142.109514256862
 30
0.0
 11
4435.725739150458
 21
3084.309514256861
 31
0.0
  0
LINE
  5
6396
330
55E5
100
AcDbEntity
  8
Visible (ANSI)
100
AcDbLine
 10
4435.725739150458
 20
3084.309514256861
 30
0.0
 11
2334.687013753372
 21
3084.309514256615
 31
0.0
  0
ARC
  5
639D
330
55E5
100
AcDbEntity
  8
Visible (ANSI)
100
AcDbCircle
 10
2295.426919953702
 20
3096.309691285243
 30
0.0
 40
8.499999999999982
100
AcDbArc
 50
270.0041035018052
 51
89.99589648438556
  0
LINE
  5
63A4
330
55E5
100
AcDbEntity
  8
Visible (ANSI)
100
AcDbLine
 10
2316.429287187842
 20
3078.309691285249
 30
0.0
 11
2316.428137295066
 21
3078.309691285245
 31
0.0
  0
LINE
  5
63AD
330
55E5
100
AcDbEntity
  8
Visible (ANSI)
100
AcDbLine
 10
2315.428002022713
 20
3078.309691285245
 30
0.0
 11
2316.428137295066
 21
3078.309691285245
 31
0.0
  0
LINE
  5
63AF
330
55E5
100
AcDbEntity
  8
Visible (ANSI)
100
AcDbLine
 10
2271.928137670238
 20
3142.109691285203
 30
0.0
 11
2271.92813767024
 21
3078.309691285245
 31
0.0
  0
LINE
  5
63B5
330
55E5
100
AcDbEntity
  8
Visible (ANSI)
100
AcDbLine
 10
2318.929287164965
 20
3078.309691285249
 30
0.0
 11
2318.929287164963
 21
3142.109691285204
 31
0.0
  0
LINE
  5
63BA
330
55E5
100
AcDbEntity
  8
Visible (ANSI)
100
AcDbLine
 10
2271.929287595039
 20
3078.309691285246
 30
0.0
 11
2318.929287164965
 21
3078.309691285249
 31
0.0
  0
SPLINE
  5
63BC
330
55E5
100
AcDbEntity
  8
Visible (ANSI)
100
AcDbSpline
210
0.0
220
0.0
230
1.0
 70
     8
 71
     3
 72
    26
 73
    22
 74
     0
 42
0.0000000001
 43
0.0000000001
 40
0.0000000000000017
 40
0.0000000000000017
 40
0.0000000000000017
 40
0.0000000000000017
 40
0.3200000029079112
 40
0.3200000029079112
 40
0.6400000052403331
 40
0.6400000052403331
 40
0.960000006074075
 40
0.960000006074075
 40
1.280000005079134
 40
1.280000005079134
 40
1.600000002649315
 40
1.600000002649315
 40
1.919999999746367
 40
1.919999999746367
 40
2.239999997519293
 40
2.239999997519293
 40
2.559999996849593
 40
2.559999996849593
 40
2.879999998002339
 40
2.879999998002339
 40
3.141592653827834
 40
3.141592653827834
 40
3.141592653827834
 40
3.141592653827834
 10
2295.427528720464
 20
3087.809691285245
 30
0.0
 10
2294.520862060688
 20
3087.809691285245
 30
0.0
 10
2293.614353081373
 20
3087.955983218088
 30
0.0
 10
2291.893072870944
 20
3088.52639725402
 30
0.0
 10
2291.078600991447
 20
3088.950420154638
 30
0.0
 10
2289.624134034037
 20
3090.03333456416
 30
0.0
 10
2288.984391905028
 20
3090.692037739873
 30
0.0
 10
2287.944409015698
 20
3092.177505123076
 30
0.0
 10
2287.544349119886
 20
3093.004010988557
 30
0.0
 10
2287.024438887974
 20
3094.741213080157
 30
0.0
 10
2286.904678969446
 20
3095.651607185037
 30
0.0
 10
2286.957627440628
 20
3097.464167310121
 30
0.0
 10
2287.130326621505
 20
3098.366018103768
 30
0.0
 10
2287.750757979358
 20
3100.069908553384
 30
0.0
 10
2288.198382256218
 20
3100.871651881594
 30
0.0
 10
2289.323304626432
 20
3102.293878087938
 30
0.0
 10
2290.000407083011
 20
3102.914113622575
 30
0.0
 10
2291.515608043436
 20
3103.910278148714
 30
0.0
 10
2292.353443036094
 20
3104.286033893607
 30
0.0
 10
2293.945228022053
 20
3104.712198718925
 30
0.0
 10
2294.68634954335
 20
3104.80969128542
 30
0.0
 10
2295.427528722486
 20
3104.809691285244
 30
0.0
  0
ARC
  5
63BD
330
55E5
100
AcDbEntity
  8
Visible (ANSI)
100
AcDbCircle
 10
2289.446920008233
 20
3902.509691285205
 30
0.0
 40
8.499999999999483
100
AcDbArc
 50
270.004103479971
 51
89.99589649803844
  0
LINE
  5
63BE
330
55E5
100
AcDbEntity
  8
Visible (ANSI)
100
AcDbLine
 10
2269.448002443268
 20
3920.509691285204
 30
0.0
 11
2309.448002077244
 21
3920.509691285205
 31
0.0
  0
LINE
  5
63C5
330
55E5
100
AcDbEntity
  8
Visible (ANSI)
100
AcDbLine
 10
2310.448137349597
 20
3920.509691285205
 30
0.0
 11
2310.449287242372
 21
3920.509691285207
 31
0.0
  0
LINE
  5
63CC
330
55E5
100
AcDbEntity
  8
Visible (ANSI)
100
AcDbLine
 10
2310.448137349597
 20
3920.509691285205
 30
0.0
 11
2309.448002077244
 21
3920.509691285205
 31
0.0
  0
LINE
  5
63CD
330
55E5
100
AcDbEntity
  8
Visible (ANSI)
100
AcDbLine
 10
2269.448002443268
 20
3920.509691285204
 30
0.0
 11
2268.449287626697
 21
3920.509691285204
 31
0.0
  0
LINE
  5
63CF
330
55E5
100
AcDbEntity
  8
Visible (ANSI)
100
AcDbLine
 10
2265.94813772477
 20
3856.500798727992
 30
0.0
 11
2265.94813772477
 21
3920.509691285204
 31
0.0
  0
LINE
  5
63D7
330
55E5
100
AcDbEntity
  8
Visible (ANSI)
100
AcDbLine
 10
2265.948137756798
 20
3920.509691285204
 30
0.0
 11
2265.949287649572
 21
3920.509691285207
 31
0.0
  0
LINE
  5
63D9
330
55E5
100
AcDbEntity
  8
Visible (ANSI)
100
AcDbLine
 10
2312.949287219497
 20
3920.509691285207
 30
0.0
 11
2312.949287219499
 21
3856.709691285193
 31
0.0
  0
LINE
  5
63DA
330
55E5
100
AcDbEntity
  8
Visible (ANSI)
100
AcDbLine
 10
2312.949287219497
 20
3920.509691285207
 30
0.0
 11
2310.449287242372
 21
3920.509691285207
 31
0.0
  0
LINE
  5
63DB
330
55E5
100
AcDbEntity
  8
Visible (ANSI)
100
AcDbLine
 10
2268.449287626697
 20
3920.509691285207
 30
0.0
 11
2265.949287649572
 21
3920.509691285207
 31
0.0
  0
SPLINE
  5
63DC
330
55E5
100
AcDbEntity
  8
Visible (ANSI)
100
AcDbSpline
210
0.0
220
0.0
230
1.0
 70
     8
 71
     3
 72
    26
 73
    22
 74
     0
 42
0.0000000001
 43
0.0000000001
 40
3.141592653971498
 40
3.141592653971498
 40
3.141592653971498
 40
3.141592653971498
 40
3.461592656879409
 40
3.461592656879409
 40
3.781592659211828
 40
3.781592659211828
 40
4.101592660045572
 40
4.101592660045572
 40
4.421592659050633
 40
4.421592659050633
 40
4.741592656620816
 40
4.741592656620816
 40
5.061592653717865
 40
5.061592653717865
 40
5.381592651490794
 40
5.381592651490794
 40
5.701592650821093
 40
5.701592650821093
 40
6.021592651973837
 40
6.021592651973837
 40
6.283185307179572
 40
6.283185307179572
 40
6.283185307179572
 40
6.283185307179572
 10
2289.447528771752
 20
3894.009691285205
 30
0.0
 10
2288.540862111975
 20
3894.009691285551
 30
0.0
 10
2287.634353132716
 20
3894.155983218741
 30
0.0
 10
2285.913072922506
 20
3894.726397255329
 30
0.0
 10
2285.09860104317
 20
3895.150420156258
 30
0.0
 10
2283.644134086171
 20
3896.233334566336
 30
0.0
 10
2283.004391957416
 20
3896.892037742293
 30
0.0
 10
2281.964409068653
 20
3898.377505125892
 30
0.0
 10
2281.564349173156
 20
3899.204010991526
 30
0.0
 10
2281.044438941907
 20
3900.941213083326
 30
0.0
 10
2280.924679023728
 20
3901.851607188251
 30
0.0
 10
2280.9776274956
 20
3903.664167313314
 30
0.0
 10
2281.150326676822
 20
3904.566018106896
 30
0.0
 10
2281.770758035325
 20
3906.269908556274
 30
0.0
 10
2282.218382312492
 20
3907.071651884314
 30
0.0
 10
2283.343304683249
 20
3908.493878090229
 30
0.0
 10
2284.020407140064
 20
3909.114113624607
 30
0.0
 10
2285.535608100869
 20
3910.110278150166
 30
0.0
 10
2286.37344309367
 20
3910.486033894741
 30
0.0
 10
2287.965228078097
 20
3910.912198718997
 30
0.0
 10
2288.706349597614
 20
3911.009691285205
 30
0.0
 10
2289.447528774996
 20
3911.009691285205
 30
0.0
  0
ARC
  5
63DD
330
55E5
100
AcDbEntity
  8
Visible (ANSI)
100
AcDbCircle
 10
4472.24690003449
 20
3902.509691285263
 30
0.0
 40
8.499999999999545
100
AcDbArc
 50
270.0041034603775
 51
89.99589649798634
  0
LINE
  5
63E5
330
55E5
100
AcDbEntity
  8
Visible (ANSI)
100
AcDbLine
 10
4493.24811737585
 20
3920.509691285266
 30
0.0
 11
4493.249267268629
 21
3920.509691285268
 31
0.0
  0
LINE
  5
63EC
330
55E5
100
AcDbEntity
  8
Visible (ANSI)
100
AcDbLine
 10
4493.24811737585
 20
3920.509691285266
 30
0.0
 11
4448.749267675828
 21
3920.509691285264
 31
0.0
  0
LINE
  5
63EF
330
55E5
100
AcDbEntity
  8
Visible (ANSI)
100
AcDbLine
 10
4448.748117751028
 20
3856.709691285249
 30
0.0
 11
4448.748117751025
 21
3920.509691285264
 31
0.0
  0
LINE
  5
63F9
330
55E5
100
AcDbEntity
  8
Visible (ANSI)
100
AcDbLine
 10
4495.749267245751
 20
3920.509691285268
 30
0.0
 11
4495.749267245754
 21
3856.709691285251
 31
0.0
  0
LINE
  5
63FA
330
55E5
100
AcDbEntity
  8
Visible (ANSI)
100
AcDbLine
 10
4495.749267245751
 20
3920.509691285268
 30
0.0
 11
4493.249267268629
 21
3920.509691285268
 31
0.0
  0
SPLINE
  5
63FC
330
55E5
100
AcDbEntity
  8
Visible (ANSI)
100
AcDbSpline
210
0.0
220
0.0
230
1.0
 70
     8
 71
     3
 72
    26
 73
    22
 74
     0
 42
0.0000000001
 43
0.0000000001
 40
3.141592654313233
 40
3.141592654313233
 40
3.141592654313233
 40
3.141592654313233
 40
3.461592657221143
 40
3.461592657221143
 40
3.781592659553566
 40
3.781592659553566
 40
4.101592660387304
 40
4.101592660387304
 40
4.421592659392366
 40
4.421592659392366
 40
4.741592656962549
 40
4.741592656962549
 40
5.061592654059601
 40
5.061592654059601
 40
5.381592651832526
 40
5.381592651832526
 40
5.70159265116283
 40
5.70159265116283
 40
6.021592652315574
 40
6.021592652315574
 40
6.283185307179588
 40
6.283185307179588
 40
6.283185307179588
 40
6.283185307179588
 10
4472.247508795103
 20
3894.009691285265
 30
0.0
 10
4471.340842135327
 20
3894.009691285921
 30
0.0
 10
4470.434333156116
 20
3894.155983219419
 30
0.0
 10
4468.7130529461
 20
3894.726397256596
 30
0.0
 10
4467.89858106691
 20
3895.150420157806
 30
0.0
 10
4466.444114110283
 20
3896.233334568378
 30
0.0
 10
4465.804371981751
 20
3896.892037744554
 30
0.0
 10
4464.764389093498
 20
3898.377505128509
 30
0.0
 10
4464.364329198279
 20
3899.20401099428
 30
0.0
 10
4463.844418967624
 20
3900.941213086257
 30
0.0
 10
4463.724659049758
 20
3901.851607191222
 30
0.0
 10
4463.777607522248
 20
3903.664167316268
 30
0.0
 10
4463.950306703778
 20
3904.56601810979
 30
0.0
 10
4464.570738062866
 20
3906.269908558957
 30
0.0
 10
4465.018362340305
 20
3907.071651886844
 30
0.0
 10
4466.143284711548
 20
3908.493878092375
 30
0.0
 10
4466.820387168577
 20
3909.114113626521
 30
0.0
 10
4468.33558812972
 20
3910.110278151563
 30
0.0
 10
4469.173423122651
 20
3910.486033895851
 30
0.0
 10
4470.765208106288
 20
3910.912198719312
 30
0.0
 10
4471.50632962484
 20
3911.009691285265
 30
0.0
 10
4472.247508801252
 20
3911.009691285265
 30
0.0
  0
ARC
  5
63FD
330
55E5
100
AcDbEntity
  8
Visible (ANSI)
100
AcDbCircle
 10
4478.426899978009
 20
3096.309691285299
 30
0.0
 40
8.499999999999991
100
AcDbArc
 50
270.0041035018052
 51
89.99589652294712
  0
LINE
  5
63FE
330
55E5
100
AcDbEntity
  8
Visible (ANSI)
100
AcDbLine
 10
4501.929267189272
 20
3078.309691285302
 30
0.0
 11
4454.928117694548
 21
3078.309691285302
 31
0.0
  0
LINE
  5
640F
330
55E5
100
AcDbEntity
  8
Visible (ANSI)
100
AcDbLine
 10
4454.928117694547
 20
3142.109691285262
 30
0.0
 11
4454.928117694548
 21
3078.309691285301
 31
0.0
  0
SPLINE
  5
641C
330
55E5
100
AcDbEntity
  8
Visible (ANSI)
100
AcDbSpline
210
0.0
220
0.0
230
1.0
 70
     8
 71
     3
 72
    26
 73
    22
 74
     0
 42
0.0000000001
 43
0.0000000001
 40
0.0000000000000002
 40
0.0000000000000002
 40
0.0000000000000002
 40
0.0000000000000002
 40
0.3200000029079097
 40
0.3200000029079097
 40
0.6400000052403316
 40
0.6400000052403316
 40
0.9600000060740732
 40
0.9600000060740732
 40
1.280000005079133
 40
1.280000005079133
 40
1.600000002649315
 40
1.600000002649315
 40
1.919999999746366
 40
1.919999999746366
 40
2.239999997519293
 40
2.239999997519293
 40
2.559999996849593
 40
2.559999996849593
 40
2.879999998002336
 40
2.879999998002336
 40
3.141592653155163
 40
3.141592653155163
 40
3.141592653155163
 40
3.141592653155163
 10
4478.427508744771
 20
3087.809691285299
 30
0.0
 10
4477.520842084994
 20
3087.809691285299
 30
0.0
 10
4476.614333105678
 20
3087.955983218144
 30
0.0
 10
4474.893052895253
 20
3088.526397254077
 30
0.0
 10
4474.078581015754
 20
3088.950420154695
 30
0.0
 10
4472.624114058344
 20
3090.033334564215
 30
0.0
 10
4471.984371929334
 20
3090.692037739927
 30
0.0
 10
4470.944389040007
 20
3092.177505123131
 30
0.0
 10
4470.544329144195
 20
3093.004010988614
 30
0.0
 10
4470.024418912282
 20
3094.741213080213
 30
0.0
 10
4469.904658993754
 20
3095.651607185093
 30
0.0
 10
4469.957607464935
 20
3097.464167310177
 30
0.0
 10
4470.130306645812
 20
3098.366018103825
 30
0.0
 10
4470.750738003665
 20
3100.069908553439
 30
0.0
 10
4471.198362280524
 20
3100.871651881651
 30
0.0
 10
4472.32328465074
 20
3102.293878087995
 30
0.0
 10
4473.000387107318
 20
3102.914113622632
 30
0.0
 10
4474.515588067742
 20
3103.91027814877
 30
0.0
 10
4475.353423060401
 20
3104.286033893663
 30
0.0
 10
4476.94520804452
 20
3104.712198718488
 30
0.0
 10
4477.686329563847
 20
3104.809691284978
 30
0.0
 10
4478.427508741076
 20
3104.8096912853
 30
0.0
  0
LINE
  5
6422
330
55E5
100
AcDbEntity
  8
Visible (ANSI)
100
AcDbLine
 10
2253.058811475764
 20
3142.109691285203
 30
0.0
 11
2253.058811475764
 21
3856.500798727992
 31
0.0
  0
LINE
  5
6426
330
55E5
100
AcDbEntity
  8
Visible (ANSI)
100
AcDbLine
 10
2253.058811475764
 20
3856.500798727992
 30
0.0
 11
4500.461875438831
 21
3856.709691285251
 31
0.0
  0
LINE
  5
642A
330
55E5
100
AcDbEntity
  8
Visible (ANSI)
100
AcDbLine
 10
4500.461875438849
 20
3142.109691285265
 30
0.0
 11
2253.058811475764
 21
3142.109691285265
 31
0.0
  0
LINE
  5
6438
330
55E5
100
AcDbEntity
  8
Visible (ANSI)
100
AcDbLine
 10
4502.66187543883
 20
3142.109691286097
 30
0.0
 11
4502.66187543883
 21
3856.709690967724
 31
0.0
  0
LINE
  5
6462
330
55E5
100
AcDbEntity
  8
Visible (ANSI)
100
AcDbLine
 10
4502.66187543883
 20
3710.672261042982
 30
0.0
 11
4570.636297116674
 21
3710.672261042982
 31
0.0
  0
LINE
  5
6467
330
55E5
100
AcDbEntity
  8
Visible (ANSI)
100
AcDbLine
 10
4570.636297116674
 20
3286.27226104299
 30
0.0
 11
4502.66187543883
 21
3286.27226104299
 31
0.0
  0
LINE
  5
647C
330
55E5
100
AcDbEntity
  8
Visible (ANSI)
100
AcDbLine
 10
4570.636297116674
 20
3710.672261042982
 30
0.0
 11
4570.636297116674
 21
3286.27226104299
 31
0.0
  0
DIMENSION
  5
6637
330
55E5
100
AcDbEntity
  8
Dimension (ANSI)
100
AcDbDimension
  2
*D1
 10
4472.24690003449
 20
4428.924396410077
 30
0.0
 11
3380.846910021361
 21
4428.924396410077
 31
0.0
 70
   160
  1
<>{\PMTG CTR'S\PFOR OPTIONAL \PSPRING MOUNT KIT}
 71
     2
 42
2182.799980026258
  3
Default (ANSI)
100
AcDbAlignedDimension
 13
2289.446920008233
 23
3902.509691285205
 33
0.0
 14
4472.24690003449
 24
3902.509691285263
 34
0.0
 50
180.0
100
AcDbRotatedDimension
1001
ACAD
1000
DSTYLE
1002
{
1070
   289
1070
     1
1070
    73
1070
     0
1070
    74
1070
     0
1070
   145
1040
-0.375
1070
   271
1070
     0
1070
   272
1070
     0
1070
    48
1040
0.0
1070
    47
1040
0.0
1002
}
  0
DIMENSION
  5
6638
330
55E5
100
AcDbEntity
  8
Dimension (ANSI)
100
AcDbDimension
  2
*D2
 10
1152.384498989665
 20
3096.309691285243
 30
0.0
 11
1152.384498989665
 21
3499.409691285223
 31
0.0
 70
   160
  1
<>{\PMTG CTR'S\PFOR OPTIONAL \PSPRING MOUNT KIT}
 71
     2
 42
806.1999999999621
  3
Default (ANSI)
100
AcDbAlignedDimension
 13
2277.446920008233
 23
3902.509691285205
 33
0.0
 14
2283.426919953702
 24
3096.309691285243
 34
0.0
 50
90.0
100
AcDbRotatedDimension
1001
ACAD
1000
DSTYLE
1002
{
1070
   289
1070
     1
1070
    73
1070
     0
1070
    74
1070
     0
1070
   145
1040
-0.375
1070
   271
1070
     0
1070
   272
1070
     0
1070
    48
1040
0.0
1070
    47
1040
0.0
1002
}
  0
DIMENSION
  5
663C
330
55E5
100
AcDbEntity
  8
Dimension (ANSI)
100
AcDbDimension
  2
*D5
 10
4246.235080004772
 20
4001.098175219406
 30
0.0
 11
3392.995729204403
 21
4001.098175219406
 31
0.0
 70
   160
  1
<>
 71
     5
 42
1706.478701600735
  3
Default (ANSI)
100
AcDbAlignedDimension
 13
2539.756378404039
 23
3914.509691285081
 33
0.0
 14
4246.235080004772
 24
3914.509691285488
 34
0.0
 50
180.0
100
AcDbRotatedDimension
1001
ACAD
1000
DSTYLE
1002
{
1070
   289
1070
     1
1070
    73
1070
     0
1070
    74
1070
     0
1070
   271
1070
     0
1070
   272
1070
     0
1070
    48
1040
0.0
1070
    47
1040
0.0
1002
}
  0
LINE
  5
6662
330
55E5
100
AcDbEntity
  8
Layer1
100
AcDbLine
 10
4500.461875430658
 20
3142.109691286097
 30
0.0
 11
5000.461875430658
 21
3142.109691286097
 31
0.0
  0
LINE
  5
6663
330
55E5
100
AcDbEntity
  8
Layer1
100
AcDbLine
 10
5000.461875430658
 20
3142.109691286097
 30
0.0
 11
5000.461875430658
 21
3856.709690967724
 31
0.0
  0
LINE
  5
6664
330
55E5
100
AcDbEntity
  8
Layer1
100
AcDbLine
 10
4500.461875598733
 20
3856.709690967724
 30
0.0
 11
5000.461875430658
 21
3856.709690967724
 31
0.0
  0
LWPOLYLINE
  5
6665
330
55E5
100
AcDbEntity
  8
Layer1
100
AcDbPolyline
 90
        4
 70
   128
 43
0.0
 10
2255.261895873897
 20
3142.109691285203
 10
1773.438226756037
 20
3142.109691285203
 10
1773.438226756037
 20
3856.500798727992
 10
2255.261895873897
 20
3856.500798727992
  0
MTEXT
  5
6666
330
55E5
100
AcDbEntity
  8
Dimension (ANSI)
100
AcDbMText
 10
5061.123603873816
 20
3522.218115595585
 30
0.0
 40
50.80000162124634
 41
0.0
 71
     2
 72
     1
  1
\A1;600mm CLEARENCE
  7
Note Text (ANSI)
 11
0.0000000000000001
 21
1.0
 31
0.0
 73
     1
 44
1.0
  0
MTEXT
  5
6667
330
55E5
100
AcDbEntity
  8
Dimension (ANSI)
100
AcDbMText
 10
1662.445426083653
 20
3522.218115595585
 30
0.0
 40
50.80000162124634
 41
0.0
 71
     2
 72
     1
  1
\A1;600mm CLEARENCE
  7
Note Text (ANSI)
 11
0.0000000000000001
 21
1.0
 31
0.0
 73
     1
 44
1.0
  0
LINE
  5
6668
330
55E5
100
AcDbEntity
  8
OUTLINE
100
AcDbLine
 10
6961.146899813719
 20
1839.721772825976
 30
0.0
 11
7092.219534723369
 21
1905.350511668093
 31
0.0
  0
LINE
  5
6669
330
55E5
100
AcDbEntity
  8
OUTLINE
100
AcDbLine
 10
7092.219534723369
 20
1905.350511668093
 30
0.0
 11
7092.219534723369
 21
1867.139702098904
 31
0.0
  0
LINE
  5
666A
330
55E5
100
AcDbEntity
  8
OUTLINE
100
AcDbLine
 10
7092.219534723369
 20
1867.139702098904
 30
0.0
 11
7168.798768353259
 21
1867.139702098904
 31
0.0
  0
LINE
  5
666B
330
55E5
100
AcDbEntity
  8
OUTLINE
100
AcDbLine
 10
7168.798768353259
 20
1867.139702098904
 30
0.0
 11
7168.798768353259
 21
1812.303843553047
 31
0.0
  0
LINE
  5
666C
330
55E5
100
AcDbEntity
  8
OUTLINE
100
AcDbLine
 10
6961.146899813719
 20
1839.721772825976
 30
0.0
 11
7092.219534723369
 21
1774.09303398386
 31
0.0
  0
LINE
  5
666D
330
55E5
100
AcDbEntity
  8
OUTLINE
100
AcDbLine
 10
7092.219534723369
 20
1774.09303398386
 30
0.0
 11
7092.219534723369
 21
1812.303843553047
 31
0.0
  0
LINE
  5
666E
330
55E5
100
AcDbEntity
  8
OUTLINE
100
AcDbLine
 10
7092.219534723369
 20
1812.303843553047
 30
0.0
 11
7168.798768353259
 21
1812.303843553047
 31
0.0
  0
LINE
  5
666F
330
55E5
100
AcDbEntity
  8
OUTLINE
100
AcDbLine
 10
5330.641725567399
 20
1812.251162053337
 30
0.0
 11
5461.714360477048
 21
1877.879900895455
 31
0.0
  0
LINE
  5
6670
330
55E5
100
AcDbEntity
  8
OUTLINE
100
AcDbLine
 10
5461.714360477048
 20
1877.879900895455
 30
0.0
 11
5461.714360477048
 21
1839.669091326266
 31
0.0
  0
LINE
  5
6671
330
55E5
100
AcDbEntity
  8
OUTLINE
100
AcDbLine
 10
5461.714360477048
 20
1839.669091326266
 30
0.0
 11
5538.293594106939
 21
1839.669091326266
 31
0.0
  0
LINE
  5
6672
330
55E5
100
AcDbEntity
  8
OUTLINE
100
AcDbLine
 10
5538.293594106939
 20
1839.669091326266
 30
0.0
 11
5538.293594106939
 21
1784.833232780409
 31
0.0
  0
LINE
  5
6673
330
55E5
100
AcDbEntity
  8
OUTLINE
100
AcDbLine
 10
5330.641725567399
 20
1812.251162053337
 30
0.0
 11
5461.714360477048
 21
1746.622423211222
 31
0.0
  0
LINE
  5
6674
330
55E5
100
AcDbEntity
  8
OUTLINE
100
AcDbLine
 10
5461.714360477048
 20
1746.622423211222
 30
0.0
 11
5461.714360477048
 21
1784.833232780409
 31
0.0
  0
LINE
  5
6675
330
55E5
100
AcDbEntity
  8
OUTLINE
100
AcDbLine
 10
5461.714360477048
 20
1784.833232780409
 30
0.0
 11
5538.293594106939
 21
1784.833232780409
 31
0.0
  0
LINE
  5
6676
330
55E5
100
AcDbEntity
  8
OUTLINE
100
AcDbLine
 10
3927.564174028212
 20
2712.425940415932
 30
0.0
 11
3861.935435186099
 21
2843.498575325581
 31
0.0
  0
LINE
  5
6677
330
55E5
100
AcDbEntity
  8
OUTLINE
100
AcDbLine
 10
3861.935435186099
 20
2843.498575325581
 30
0.0
 11
3900.146244755287
 21
2843.498575325581
 31
0.0
  0
LINE
  5
6678
330
55E5
100
AcDbEntity
  8
OUTLINE
100
AcDbLine
 10
3900.146244755287
 20
2843.498575325581
 30
0.0
 11
3900.146244755287
 21
2920.07780895547
 31
0.0
  0
LINE
  5
6679
330
55E5
100
AcDbEntity
  8
OUTLINE
100
AcDbLine
 10
3900.146244755287
 20
2920.07780895547
 30
0.0
 11
3954.982103301143
 21
2920.07780895547
 31
0.0
  0
LINE
  5
667A
330
55E5
100
AcDbEntity
  8
OUTLINE
100
AcDbLine
 10
3927.564174028212
 20
2712.425940415932
 30
0.0
 11
3993.19291287033
 21
2843.498575325581
 31
0.0
  0
LINE
  5
667B
330
55E5
100
AcDbEntity
  8
OUTLINE
100
AcDbLine
 10
3993.19291287033
 20
2843.498575325581
 30
0.0
 11
3954.982103301143
 21
2843.498575325581
 31
0.0
  0
LINE
  5
667C
330
55E5
100
AcDbEntity
  8
OUTLINE
100
AcDbLine
 10
3954.982103301143
 20
2843.498575325581
 30
0.0
 11
3954.982103301143
 21
2920.07780895547
 31
0.0
  0
LINE
  5
667D
330
55E5
100
AcDbEntity
  8
OUTLINE
100
AcDbLine
 10
3959.805797985538
 20
4083.464729353427
 30
0.0
 11
3894.177059143423
 21
4214.537364263079
 31
0.0
  0
LINE
  5
667E
330
55E5
100
AcDbEntity
  8
OUTLINE
100
AcDbLine
 10
3894.177059143423
 20
4214.537364263079
 30
0.0
 11
3932.38786871261
 21
4214.537364263079
 31
0.0
  0
LINE
  5
667F
330
55E5
100
AcDbEntity
  8
OUTLINE
100
AcDbLine
 10
3932.38786871261
 20
4214.537364263079
 30
0.0
 11
3932.38786871261
 21
4291.116597892965
 31
0.0
  0
LINE
  5
6680
330
55E5
100
AcDbEntity
  8
OUTLINE
100
AcDbLine
 10
3932.38786871261
 20
4291.116597892965
 30
0.0
 11
3987.223727258469
 21
4291.116597892965
 31
0.0
  0
LINE
  5
6681
330
55E5
100
AcDbEntity
  8
OUTLINE
100
AcDbLine
 10
3959.805797985538
 20
4083.464729353427
 30
0.0
 11
4025.434536827656
 21
4214.537364263079
 31
0.0
  0
LINE
  5
6682
330
55E5
100
AcDbEntity
  8
OUTLINE
100
AcDbLine
 10
4025.434536827656
 20
4214.537364263079
 30
0.0
 11
3987.223727258469
 21
4214.537364263079
 31
0.0
  0
LINE
  5
6683
330
55E5
100
AcDbEntity
  8
OUTLINE
100
AcDbLine
 10
3987.223727258469
 20
4214.537364263079
 30
0.0
 11
3987.223727258469
 21
4291.116597892965
 31
0.0
  0
MTEXT
  5
668C
330
55E5
100
AcDbEntity
  8
Dimension (ANSI)
100
AcDbMText
 10
4512.691643979702
 20
3509.19798258756
 30
0.0
 40
50.80000162124634
 41
0.0
 71
     2
 72
     1
  1
\A1;ELECT. BOX
  7
Note Text (ANSI)
 11
0.0000000000000001
 21
1.0
 31
0.0
 73
     1
 44
1.0
  0
LWPOLYLINE
  5
68C3
330
55E5
100
AcDbEntity
  8
OUTLINE
100
AcDbPolyline
 90
        4
 70
     1
 43
0.0
 10
809.6080775799746
 20
0.0
 10
7285.054587084106
 20
0.0
 10
7285.054587084106
 20
4845.914381818936
 10
809.6080775799746
 20
4845.914381818936
  0
LINE
  5
6B1E
330
55E5
100
AcDbEntity
  8
Visible (ANSI)
100
AcDbLine
 10
4501.929267189272
 20
3078.309691285305
 30
0.0
 11
4501.92926718927
 21
3142.109691285265
 31
0.0
  0
DIMENSION
  5
6BA5
330
55E5
100
AcDbEntity
  8
Dimension (ANSI)
100
AcDbDimension
  2
*D7
 10
4435.709533889268
 20
2964.218191098412
 30
0.0
 11
3451.370633513587
 21
2964.351353945469
 31
0.0
 70
   160
  1
<>
 71
     5
 42
2101.038909382892
  3
Default (ANSI)
100
AcDbAlignedDimension
 13
2334.686851415565
 23
3084.309514256615
 33
0.0
 14
4435.725739150458
 24
3084.007376547989
 34
0.0
 50
179.992248940812
100
AcDbRotatedDimension
1001
ACAD
1000
DSTYLE
1002
{
1070
   289
1070
     1
1070
   271
1070
     0
1070
   272
1070
     0
1070
    48
1040
0.0
1070
    47
1040
0.0
1002
}
  0
TEXT
  5
717B
330
55E5
100
AcDbEntity
  8
TEXT
100
AcDbText
 10
6062.309039931716
 20
408.3492456069998
 30
0.0
 40
80.0
  1
Temperzone
  7
TITLE5
 72
     1
 11
6410.880468503144
 21
408.3492456069998
 31
0.0
100
AcDbText
  0
LINE
  5
7B6B
330
55E5
100
AcDbEntity
  8
Visible (ANSI)
100
AcDbLine
 10
2255.147234987623
 20
1357.583066207311
 30
0.0
 11
2255.242197732552
 21
2059.547059784063
 31
0.0
  0
LINE
  5
7BDC
330
55E5
100
AcDbEntity
  8
Visible (ANSI)
100
AcDbLine
 10
2950.480041687184
 20
1747.883627489632
 30
0.0
 11
2950.503918872448
 21
1924.383625874548
 31
0.0
  0
LINE
  5
7BDD
330
55E5
100
AcDbEntity
  8
Visible (ANSI)
100
AcDbLine
 10
3280.480038667467
 20
1747.838984593671
 30
0.0
 11
2950.480041687184
 21
1747.883627489632
 31
0.0
  0
LINE
  5
7BDE
330
55E5
100
AcDbEntity
  8
Visible (ANSI)
100
AcDbLine
 10
3280.503915852731
 20
1924.338982978585
 30
0.0
 11
3280.480038667467
 21
1747.838984593671
 31
0.0
  0
LINE
  5
7BDF
330
55E5
100
AcDbEntity
  8
Visible (ANSI)
100
AcDbLine
 10
2950.503918872448
 20
1924.383625874548
 30
0.0
 11
3280.503915852731
 21
1924.338982978585
 31
0.0
  0
LINE
  5
7BE0
330
55E5
100
AcDbEntity
  8
Visible (ANSI)
100
AcDbLine
 10
2389.980046816129
 20
1747.959452772018
 30
0.0
 11
2390.003924001392
 21
1924.459451156932
 31
0.0
  0
LINE
  5
7BE1
330
55E5
100
AcDbEntity
  8
Visible (ANSI)
100
AcDbLine
 10
2719.980043796411
 20
1747.914809876055
 30
0.0
 11
2389.980046816129
 21
1747.959452772018
 31
0.0
  0
LINE
  5
7BE2
330
55E5
100
AcDbEntity
  8
Visible (ANSI)
100
AcDbLine
 10
2720.003920981674
 20
1924.414808260971
 30
0.0
 11
2719.980043796411
 21
1747.914809876055
 31
0.0
  0
LINE
  5
7BE3
330
55E5
100
AcDbEntity
  8
Visible (ANSI)
100
AcDbLine
 10
2390.003924001391
 20
1924.459451156932
 30
0.0
 11
2720.003920981674
 21
1924.414808260971
 31
0.0
  0
LINE
  5
7BE6
330
55E5
100
AcDbEntity
  8
Visible (ANSI)
100
AcDbLine
 10
3384.072187513039
 20
2059.395973343135
 30
0.0
 11
3383.980304722087
 21
1380.198979558049
 31
0.0
  0
LINE
  5
7BEB
330
55E5
100
AcDbEntity
  8
Visible (ANSI)
100
AcDbLine
 10
3381.827224787824
 20
1357.432270621611
 30
0.0
 11
2255.147235207236
 21
1357.584689585327
 31
0.0
  0
LINE
  5
7BEC
330
55E5
100
AcDbEntity
  8
Visible (ANSI)
100
AcDbLine
 10
3381.830304741872
 20
1380.199270413281
 30
0.0
 11
3381.827224787824
 21
1357.432270621611
 31
0.0
  0
LINE
  5
7C40
330
55E5
100
AcDbEntity
  8
Visible (ANSI)
100
AcDbLine
 10
3388.128983389714
 20
1370.431418229185
 30
0.0
 11
3388.130309148441
 21
1380.23141813951
 31
0.0
  0
LINE
  5
7C44
330
55E5
100
AcDbEntity
  8
Visible (ANSI)
100
AcDbLine
 10
3385.980304703788
 20
1380.198708995043
 30
0.0
 11
3386.07218749474
 21
2059.395702780129
 31
0.0
  0
LINE
  5
7C47
330
55E5
100
AcDbEntity
  8
Visible (ANSI)
100
AcDbLine
 10
3388.138982036807
 20
1370.421416876463
 30
0.0
 11
3388.128982036899
 21
1370.421418229277
 31
0.0
  0
LINE
  5
7C48
330
55E5
100
AcDbEntity
  8
Visible (ANSI)
100
AcDbLine
 10
3388.128983389714
 20
1370.431418229185
 30
0.0
 11
3388.138983389622
 21
1370.431416876371
 31
0.0
  0
LINE
  5
7C49
330
55E5
100
AcDbEntity
  8
Visible (ANSI)
100
AcDbLine
 10
3388.138983389622
 20
1370.431416876371
 30
0.0
 11
3388.138982036808
 21
1370.421416876463
 31
0.0
  0
LINE
  5
7C4A
330
55E5
100
AcDbEntity
  8
Visible (ANSI)
100
AcDbLine
 10
3388.127224730176
 20
1357.431418348145
 30
0.0
 11
3388.128982036899
 21
1370.421418229277
 31
0.0
  0
LINE
  5
7C4C
330
55E5
100
AcDbEntity
  8
Visible (ANSI)
100
AcDbLine
 10
3815.380033772779
 20
1747.766622517759
 30
0.0
 11
3485.380036792499
 21
1747.811265413723
 31
0.0
  0
LINE
  5
7C4D
330
55E5
100
AcDbEntity
  8
Visible (ANSI)
100
AcDbLine
 10
3485.380036792499
 20
1747.811265413723
 30
0.0
 11
3485.403846337012
 21
1923.811263803212
 31
0.0
  0
LINE
  5
7C4E
330
55E5
100
AcDbEntity
  8
Visible (ANSI)
100
AcDbLine
 10
3485.403846337012
 20
1923.811263803212
 30
0.0
 11
3815.403843317292
 21
1923.766620907251
 31
0.0
  0
LINE
  5
7C4F
330
55E5
100
AcDbEntity
  8
Visible (ANSI)
100
AcDbLine
 10
3815.403843317292
 20
1923.766620907251
 30
0.0
 11
3815.380033772779
 21
1747.766622517759
 31
0.0
  0
LINE
  5
7C50
330
55E5
100
AcDbEntity
  8
Visible (ANSI)
100
AcDbLine
 10
4375.880028643833
 20
1747.690797235376
 30
0.0
 11
4045.880031663553
 21
1747.735440131338
 31
0.0
  0
LINE
  5
7C51
330
55E5
100
AcDbEntity
  8
Visible (ANSI)
100
AcDbLine
 10
4045.880031663553
 20
1747.735440131338
 30
0.0
 11
4045.903841208065
 21
1923.735438520829
 31
0.0
  0
LINE
  5
7C52
330
55E5
100
AcDbEntity
  8
Visible (ANSI)
100
AcDbLine
 10
4045.903841208065
 20
1923.735438520829
 30
0.0
 11
4375.903838188345
 21
1923.690795624867
 31
0.0
  0
LINE
  5
7C53
330
55E5
100
AcDbEntity
  8
Visible (ANSI)
100
AcDbLine
 10
4375.903838188345
 20
1923.690795624867
 30
0.0
 11
4375.880028643833
 21
1747.690797235376
 31
0.0
  0
LINE
  5
7C63
330
55E5
100
AcDbEntity
  8
Visible (ANSI)
100
AcDbLine
 10
4500.572177296365
 20
2059.244931545103
 30
0.0
 11
4500.477214551433
 21
1357.280937968376
 31
0.0
  0
LINE
  5
7C64
330
55E5
100
AcDbEntity
  8
Visible (ANSI)
100
AcDbLine
 10
3815.380037019536
 20
1747.790622517538
 30
0.0
 11
3485.38004003925
 21
1747.835265413501
 31
0.0
  0
LINE
  5
7C68
330
55E5
100
AcDbEntity
  8
Visible (ANSI)
100
AcDbLine
 10
4375.880031890589
 20
1747.714797235152
 30
0.0
 11
4045.880034910303
 21
1747.759440131115
 31
0.0
  0
LINE
  5
7C9F
330
55E5
100
AcDbEntity
  8
Visible (ANSI)
100
AcDbLine
 10
2336.917297019879
 20
1653.7166303182
 30
0.0
 11
4433.617277833713
 21
1653.432985591035
 31
0.0
  0
LINE
  5
7CDB
330
55E5
100
AcDbEntity
  8
Visible (ANSI)
100
AcDbLine
 10
4435.805856462944
 20
1653.433388672782
 30
0.0
 11
4435.806008908323
 21
1939.732692115985
 31
0.0
  0
LINE
  5
7CDC
330
55E5
100
AcDbEntity
  8
Visible (ANSI)
100
AcDbLine
 10
4435.806008908323
 20
1939.732692115985
 30
0.0
 11
2336.956028114164
 21
1940.016627698379
 31
0.0
  0
ARC
  5
7CDF
330
55E5
100
AcDbEntity
  8
Visible (ANSI)
100
AcDbCircle
 10
2336.955737258933
 20
1937.866627718054
 30
0.0
 40
2.149999999999852
100
AcDbArc
 50
89.992248940812
 51
179.9922489408641
  0
LINE
  5
7CE1
330
55E5
100
AcDbEntity
  8
Visible (ANSI)
100
AcDbLine
 10
2336.917297019879
 20
1653.7166303182
 30
0.0
 11
2350.767296893142
 21
1653.714756669384
 31
0.0
  0
ARC
  5
7CE4
330
55E5
100
AcDbEntity
  8
Visible (ANSI)
100
AcDbCircle
 10
2336.917587875111
 20
1655.866630298526
 30
0.0
 40
2.149999999999856
100
AcDbArc
 50
179.9922489408641
 51
269.992248940812
  0
LINE
  5
7CE6
330
55E5
100
AcDbEntity
  8
Visible (ANSI)
100
AcDbLine
 10
2334.767587894784
 20
1655.866921153756
 30
0.0
 11
2334.805737278606
 21
1937.866918573284
 31
0.0
  0
LINE
  5
7D6F
330
55E5
100
AcDbEntity
  8
Visible (ANSI)
100
AcDbLine
 10
4435.805856462944
 20
1653.433388672782
 30
0.0
 11
4430.617277861165
 21
1653.433391435536
 31
0.0
  0
LINE
  5
7D78
330
55E5
100
AcDbEntity
  8
Visible (ANSI)
100
AcDbLine
 10
3385.917287420928
 20
1653.574720021635
 30
0.0
 11
4431.917277849428
 21
1653.433215569586
 31
0.0
  0
LINE
  5
7D80
330
55E5
100
AcDbEntity
  8
Visible (ANSI)
100
AcDbLine
 10
2339.917296992426
 20
1653.716224473686
 30
0.0
 11
3385.917287420928
 21
1653.574720021635
 31
0.0
  0
LINE
  5
7D8B
330
55E5
100
AcDbEntity
  8
Visible (ANSI)
100
AcDbLine
 10
4557.130814970631
 20
1383.891380932053
 30
0.0
 11
4557.134684021616
 21
1412.491380670329
 31
0.0
  0
LINE
  5
7D8C
330
55E5
100
AcDbEntity
  8
Visible (ANSI)
100
AcDbLine
 10
4557.130814970631
 20
1383.891380932053
 30
0.0
 11
4500.480815489105
 21
1383.899044629194
 31
0.0
  0
LINE
  5
7D8D
330
55E5
100
AcDbEntity
  8
Visible (ANSI)
100
AcDbLine
 10
4557.134684021616
 20
1412.491380670329
 30
0.0
 11
4500.484684540088
 21
1412.49904436747
 31
0.0
  0
LINE
  5
7EA3
330
55E5
100
AcDbEntity
  8
Visible (ANSI)
100
AcDbLine
 10
4074.242527081564
 20
1839.408604049197
 30
0.0
 11
4074.23012812598
 21
1747.755604887862
 31
0.0
  0
LINE
  5
7EA4
330
55E5
100
AcDbEntity
  8
Visible (ANSI)
100
AcDbLine
 10
4073.742527086142
 20
1839.408671689948
 30
0.0
 11
4074.242527081564
 21
1839.408604049197
 31
0.0
  0
ARC
  5
7EA5
330
55E5
100
AcDbEntity
  8
Visible (ANSI)
100
AcDbCircle
 10
4073.74609851782
 20
1865.808671448374
 30
0.0
 40
26.4
100
AcDbArc
 50
179.992248940812
 51
269.992248940812
  0
LINE
  5
7EA7
330
55E5
100
AcDbEntity
  8
Visible (ANSI)
100
AcDbLine
 10
3513.646532217782
 20
1839.484442318615
 30
0.0
 11
3513.634133262196
 21
1747.831443157271
 31
0.0
  0
LINE
  5
7EA8
330
55E5
100
AcDbEntity
  8
Visible (ANSI)
100
AcDbLine
 10
3513.146532222358
 20
1839.484509959367
 30
0.0
 11
3513.646532217782
 21
1839.484442318615
 31
0.0
  0
ARC
  5
7EA9
330
55E5
100
AcDbEntity
  8
Visible (ANSI)
100
AcDbCircle
 10
3513.150103654035
 20
1865.884509717792
 30
0.0
 40
26.39999999999993
100
AcDbArc
 50
179.992248940812
 51
269.992248940812
  0
LINE
  5
7EAB
330
55E5
100
AcDbEntity
  8
Visible (ANSI)
100
AcDbLine
 10
2978.880361058995
 20
1838.06178627693
 30
0.0
 11
2978.868161102499
 21
1747.879787102138
 31
0.0
  0
LINE
  5
7EAC
330
55E5
100
AcDbEntity
  8
Visible (ANSI)
100
AcDbLine
 10
2978.380361063571
 20
1838.061853917681
 30
0.0
 11
2978.880361058994
 21
1838.06178627693
 31
0.0
  0
ARC
  5
7EAD
330
55E5
100
AcDbEntity
  8
Visible (ANSI)
100
AcDbCircle
 10
2978.383932495248
 20
1864.461853676107
 30
0.0
 40
26.4
100
AcDbArc
 50
179.992248940812
 51
269.992248940812
  0
LINE
  5
7EAF
330
55E5
100
AcDbEntity
  8
Visible (ANSI)
100
AcDbLine
 10
2418.284366195211
 20
1838.137624546349
 30
0.0
 11
2418.272166238715
 21
1747.955625371545
 31
0.0
  0
LINE
  5
7EB0
330
55E5
100
AcDbEntity
  8
Visible (ANSI)
100
AcDbLine
 10
2417.784366199786
 20
1838.1376921871
 30
0.0
 11
2418.284366195211
 21
1838.137624546349
 31
0.0
  0
ARC
  5
7EB1
330
55E5
100
AcDbEntity
  8
Visible (ANSI)
100
AcDbCircle
 10
2417.787937631463
 20
1864.537691945525
 30
0.0
 40
26.39999999999993
100
AcDbArc
 50
179.992248940812
 51
269.992248940812
  0
LINE
  5
7EB3
330
55E5
100
AcDbEntity
  8
Visible (ANSI)
100
AcDbLine
 10
4347.830125622392
 20
1747.718591868664
 30
0.0
 11
4347.842524577978
 21
1839.371591029991
 31
0.0
  0
ARC
  5
7EB4
330
55E5
100
AcDbEntity
  8
Visible (ANSI)
100
AcDbCircle
 10
4347.746095984948
 20
1865.771414921949
 30
0.0
 40
26.39999999999997
100
AcDbArc
 50
270.2092789276398
 51
359.992248940812
  0
LINE
  5
7EB6
330
55E5
100
AcDbEntity
  8
Visible (ANSI)
100
AcDbLine
 10
3787.234130758607
 20
1747.794430138073
 30
0.0
 11
3787.246529714194
 21
1839.44742929941
 31
0.0
  0
ARC
  5
7EB7
330
55E5
100
AcDbEntity
  8
Visible (ANSI)
100
AcDbCircle
 10
3787.150101121166
 20
1865.847253191368
 30
0.0
 40
26.39999999999991
100
AcDbArc
 50
270.2092789276398
 51
359.992248940812
  0
LINE
  5
7EB9
330
55E5
100
AcDbEntity
  8
Visible (ANSI)
100
AcDbLine
 10
3252.468158598912
 20
1747.842774082941
 30
0.0
 11
3252.480358555408
 21
1838.024773257723
 31
0.0
  0
ARC
  5
7EBA
330
55E5
100
AcDbEntity
  8
Visible (ANSI)
100
AcDbCircle
 10
3252.383929962377
 20
1864.424597149681
 30
0.0
 40
26.39999999999997
100
AcDbArc
 50
270.2092789276398
 51
359.992248940812
  0
LINE
  5
7EBC
330
55E5
100
AcDbEntity
  8
Visible (ANSI)
100
AcDbLine
 10
2691.872163735125
 20
1747.918612352348
 30
0.0
 11
2691.884363691622
 21
1838.100611527143
 31
0.0
  0
ARC
  5
7EBD
330
55E5
100
AcDbEntity
  8
Visible (ANSI)
100
AcDbCircle
 10
2691.787935098593
 20
1864.500435419101
 30
0.0
 40
26.39999999999991
100
AcDbArc
 50
270.2092789276398
 51
359.992248940812
  0
LINE
  5
7EF2
330
55E5
100
AcDbEntity
  8
Visible (ANSI)
100
AcDbLine
 10
3784.345510134567
 20
1860.200821943647
 30
0.0
 11
3784.330303681951
 21
1747.794822972167
 31
0.0
  0
LINE
  5
7EF3
330
55E5
100
AcDbEntity
  8
Visible (ANSI)
100
AcDbLine
 10
3777.330303746005
 20
1747.795769942688
 30
0.0
 11
3777.345645480124
 21
1861.201768905016
 31
0.0
  0
ARC
  5
7EF4
330
55E5
100
AcDbEntity
  8
Visible (ANSI)
100
AcDbCircle
 10
3783.345510143719
 20
1860.200957225149
 30
0.0
 40
0.9999999999999998
100
AcDbArc
 50
359.992248940812
 51
89.992248940812
  0
LINE
  5
7EF5
330
55E5
100
AcDbEntity
  8
Visible (ANSI)
100
AcDbLine
 10
3783.345645425221
 20
1861.200957215999
 30
0.0
 11
3777.345645480124
 21
1861.201768905016
 31
0.0
  0
LINE
  5
7EF6
330
55E5
100
AcDbEntity
  8
Visible (ANSI)
100
AcDbLine
 10
3514.630306149853
 20
1747.831308393505
 30
0.0
 11
3514.645512602469
 21
1860.237307364988
 31
0.0
  0
ARC
  5
7EF7
330
55E5
100
AcDbEntity
  8
Visible (ANSI)
100
AcDbCircle
 10
3515.645512593318
 20
1860.237172083486
 30
0.0
 40
0.9999999999999998
100
AcDbArc
 50
89.992248940812
 51
179.992248940812
  0
LINE
  5
7EF8
330
55E5
100
AcDbEntity
  8
Visible (ANSI)
100
AcDbLine
 10
3521.630306085799
 20
1747.830361422984
 30
0.0
 11
3521.645647819918
 21
1861.236360385318
 31
0.0
  0
LINE
  5
7EF9
330
55E5
100
AcDbEntity
  8
Visible (ANSI)
100
AcDbLine
 10
3521.645647819918
 20
1861.236360385318
 30
0.0
 11
3515.645647874822
 21
1861.237172074336
 31
0.0
  0
LINE
  5
7F17
330
55E5
100
AcDbEntity
  8
Visible (ANSI)
100
AcDbLine
 10
3777.345378800543
 20
1859.23047518025
 30
0.0
 11
3521.645381140337
 21
1859.265066660551
 31
0.0
  0
LINE
  5
7F38
330
55E5
100
AcDbEntity
  8
Visible (ANSI)
100
AcDbLine
 10
4344.941505004807
 20
1860.124983674225
 30
0.0
 11
4344.926298552191
 21
1747.718984702758
 31
0.0
  0
LINE
  5
7F39
330
55E5
100
AcDbEntity
  8
Visible (ANSI)
100
AcDbLine
 10
4337.926295369491
 20
1747.695931673501
 30
0.0
 11
4337.941640350368
 21
1861.125930635594
 31
0.0
  0
ARC
  5
7F3A
330
55E5
100
AcDbEntity
  8
Visible (ANSI)
100
AcDbCircle
 10
4343.941505013957
 20
1860.125118955728
 30
0.0
 40
1.0
100
AcDbArc
 50
359.992248940812
 51
89.992248940812
  0
LINE
  5
7F3B
330
55E5
100
AcDbEntity
  8
Visible (ANSI)
100
AcDbLine
 10
4343.941640295462
 20
1861.125118946576
 30
0.0
 11
4337.941640350364
 21
1861.125930635594
 31
0.0
  0
LINE
  5
7F3C
330
55E5
100
AcDbEntity
  8
Visible (ANSI)
100
AcDbLine
 10
4075.226301020093
 20
1747.755470124094
 30
0.0
 11
4075.24150747271
 21
1860.161469095568
 31
0.0
  0
ARC
  5
7F3D
330
55E5
100
AcDbEntity
  8
Visible (ANSI)
100
AcDbCircle
 10
4076.241507463561
 20
1860.161333814065
 30
0.0
 40
0.9999999999999998
100
AcDbArc
 50
89.992248940812
 51
179.992248940812
  0
LINE
  5
7F3E
330
55E5
100
AcDbEntity
  8
Visible (ANSI)
100
AcDbLine
 10
4082.226300956039
 20
1747.754523153574
 30
0.0
 11
4082.24164269016
 21
1861.160522115896
 31
0.0
  0
LINE
  5
7F3F
330
55E5
100
AcDbEntity
  8
Visible (ANSI)
100
AcDbLine
 10
4082.24164269016
 20
1861.160522115896
 30
0.0
 11
4076.241642745062
 21
1861.161333804914
 31
0.0
  0
LINE
  5
7F65
330
55E5
100
AcDbEntity
  8
Visible (ANSI)
100
AcDbLine
 10
4337.941361189781
 20
1859.062377425919
 30
0.0
 11
4082.241363529577
 21
1859.096968906221
 31
0.0
  0
LINE
  5
7F88
330
55E5
100
AcDbEntity
  8
Visible (ANSI)
100
AcDbLine
 10
2688.983344111996
 20
1858.854004171379
 30
0.0
 11
2688.96833665847
 21
1747.919005186443
 31
0.0
  0
LINE
  5
7F89
330
55E5
100
AcDbEntity
  8
Visible (ANSI)
100
AcDbLine
 10
2681.968336722523
 20
1747.919952156963
 30
0.0
 11
2681.983479457552
 21
1859.854951132749
 31
0.0
  0
ARC
  5
7F8A
330
55E5
100
AcDbEntity
  8
Visible (ANSI)
100
AcDbCircle
 10
2687.983344121145
 20
1858.854139452882
 30
0.0
 40
0.9999999999999998
100
AcDbArc
 50
359.992248940812
 51
89.992248940812
  0
LINE
  5
7F8B
330
55E5
100
AcDbEntity
  8
Visible (ANSI)
100
AcDbLine
 10
2687.98347940265
 20
1859.854139443731
 30
0.0
 11
2681.983479457552
 21
1859.854951132749
 31
0.0
  0
LINE
  5
7F8C
330
55E5
100
AcDbEntity
  8
Visible (ANSI)
100
AcDbLine
 10
2419.26833912637
 20
1747.95549060778
 30
0.0
 11
2419.283346579896
 21
1858.890489592722
 31
0.0
  0
ARC
  5
7F8D
330
55E5
100
AcDbEntity
  8
Visible (ANSI)
100
AcDbCircle
 10
2420.283346570747
 20
1858.890354311219
 30
0.0
 40
0.9999999999999998
100
AcDbArc
 50
89.992248940812
 51
179.992248940812
  0
LINE
  5
7F8E
330
55E5
100
AcDbEntity
  8
Visible (ANSI)
100
AcDbLine
 10
2426.268339062317
 20
1747.954543637259
 30
0.0
 11
2426.283481797345
 21
1859.889542613051
 31
0.0
  0
LINE
  5
7F8F
330
55E5
100
AcDbEntity
  8
Visible (ANSI)
100
AcDbLine
 10
2426.283481797345
 20
1859.889542613051
 30
0.0
 11
2420.28348185225
 21
1859.890354302069
 31
0.0
  0
LINE
  5
7FAD
330
55E5
100
AcDbEntity
  8
Visible (ANSI)
100
AcDbLine
 10
2681.983212777971
 20
1857.883657407983
 30
0.0
 11
2426.283215117765
 21
1857.918248888285
 31
0.0
  0
LINE
  5
7FCE
330
55E5
100
AcDbEntity
  8
Visible (ANSI)
100
AcDbLine
 10
3249.579338982238
 20
1858.778165901956
 30
0.0
 11
3249.564331528711
 21
1747.843166917035
 31
0.0
  0
LINE
  5
7FCF
330
55E5
100
AcDbEntity
  8
Visible (ANSI)
100
AcDbLine
 10
3242.564331592767
 20
1747.844113887555
 30
0.0
 11
3242.579474327795
 21
1859.779112863328
 31
0.0
  0
ARC
  5
7FD0
330
55E5
100
AcDbEntity
  8
Visible (ANSI)
100
AcDbCircle
 10
3248.579338991388
 20
1858.778301183461
 30
0.0
 40
0.9999999999999996
100
AcDbArc
 50
359.992248940812
 51
89.992248940812
  0
LINE
  5
7FD1
330
55E5
100
AcDbEntity
  8
Visible (ANSI)
100
AcDbLine
 10
3248.579474272891
 20
1859.77830117431
 30
0.0
 11
3242.579474327795
 21
1859.779112863328
 31
0.0
  0
LINE
  5
7FD2
330
55E5
100
AcDbEntity
  8
Visible (ANSI)
100
AcDbLine
 10
2979.864333996614
 20
1747.879652338371
 30
0.0
 11
2979.87934145014
 21
1858.814651323299
 31
0.0
  0
ARC
  5
7FD3
330
55E5
100
AcDbEntity
  8
Visible (ANSI)
100
AcDbCircle
 10
2980.879341440989
 20
1858.814516041796
 30
0.0
 40
0.9999999999999998
100
AcDbArc
 50
89.992248940812
 51
179.992248940812
  0
LINE
  5
7FD4
330
55E5
100
AcDbEntity
  8
Visible (ANSI)
100
AcDbLine
 10
2986.86433393256
 20
1747.87870536785
 30
0.0
 11
2986.879476667589
 21
1859.813704343627
 31
0.0
  0
LINE
  5
7FD5
330
55E5
100
AcDbEntity
  8
Visible (ANSI)
100
AcDbLine
 10
2986.879476667589
 20
1859.813704343627
 30
0.0
 11
2980.879476722492
 21
1859.814516032647
 31
0.0
  0
LINE
  5
7FFB
330
55E5
100
AcDbEntity
  8
Visible (ANSI)
100
AcDbLine
 10
3242.579195167212
 20
1857.715559653651
 30
0.0
 11
2986.879197507006
 21
1857.750151133954
 31
0.0
  0
LINE
  5
8036
330
55E5
100
AcDbEntity
  8
Visible (ANSI)
100
AcDbLine
 10
4500.342177298557
 20
2059.244962659849
 30
0.0
 11
2255.242197952165
 21
2059.548683162082
 31
0.0
  0
LINE
  5
805F
330
55E5
100
AcDbEntity
  8
Visible (ANSI)
100
AcDbLine
 10
3381.830304741872
 20
1380.199270413281
 30
0.0
 11
3388.130304684092
 21
1380.198418139811
 31
0.0
  0
LINE
  5
8092
330
55E5
100
AcDbEntity
  8
Visible (ANSI)
100
AcDbLine
 10
4570.577155680689
 20
1433.738695779767
 30
0.0
 11
4570.616029706446
 21
1728.638827246051
 31
0.0
  0
LINE
  5
8094
330
55E5
100
AcDbEntity
  8
Visible (ANSI)
100
AcDbLine
 10
4500.487559136331
 20
1433.748042324311
 30
0.0
 11
4570.577155680689
 21
1433.738695779767
 31
0.0
  0
LINE
  5
8095
330
55E5
100
AcDbEntity
  8
Visible (ANSI)
100
AcDbLine
 10
4570.616029689069
 20
1728.638695425068
 30
0.0
 11
4500.527453637335
 21
1728.647934570189
 31
0.0
  0
LINE
  5
82C1
330
55E5
100
AcDbEntity
  8
Visible (ANSI)
100
AcDbLine
 10
4500.477214551433
 20
1357.280937968376
 30
0.0
 11
3388.127224730176
 21
1357.431418348145
 31
0.0
  0
LINE
  5
82F6
330
55E5
100
AcDbEntity
  8
Visible (ANSI)
100
AcDbLine
 10
2271.62898044517
 20
1952.145175341575
 30
0.0
 11
2318.631635909039
 21
1952.141332017406
 31
0.0
  0
LINE
  5
82F7
330
55E5
100
AcDbEntity
  8
Visible (ANSI)
100
AcDbLine
 10
2271.637687045505
 20
2026.145941547188
 30
0.0
 11
2274.137687022629
 21
2026.145603343431
 31
0.0
  0
LINE
  5
82F8
330
55E5
100
AcDbEntity
  8
Visible (ANSI)
100
AcDbLine
 10
2316.137686638306
 20
2026.139921520309
 30
0.0
 11
2318.637686615427
 21
2026.139583316552
 31
0.0
  0
LINE
  5
82F9
330
55E5
100
AcDbEntity
  8
Visible (ANSI)
100
AcDbLine
 10
2318.631635909039
 20
1952.141332017406
 30
0.0
 11
2318.637686615427
 21
2026.139583316552
 31
0.0
  0
LINE
  5
82FA
330
55E5
100
AcDbEntity
  8
Visible (ANSI)
100
AcDbLine
 10
2271.62898044517
 20
1952.145175341575
 30
0.0
 11
2271.637687045505
 21
2026.145941547188
 31
0.0
  0
LINE
  5
82FB
330
55E5
100
AcDbEntity
  8
Visible (ANSI)
100
AcDbLine
 10
2275.137687013478
 20
2026.145468061927
 30
0.0
 11
2315.137686647454
 21
2026.140056801812
 31
0.0
  0
LINE
  5
82FC
330
55E5
100
AcDbEntity
  8
Visible (ANSI)
100
AcDbLine
 10
2275.137687013478
 20
2026.145468061927
 30
0.0
 11
2274.137687022629
 21
2026.145603343431
 31
0.0
  0
LINE
  5
82FD
330
55E5
100
AcDbEntity
  8
Visible (ANSI)
100
AcDbLine
 10
2316.137686638306
 20
2026.139921520309
 30
0.0
 11
2315.137686647454
 21
2026.140056801812
 31
0.0
  0
LINE
  5
8306
330
55E5
100
AcDbEntity
  8
Visible (ANSI)
100
AcDbLine
 10
4454.630675398369
 20
1951.85002023071
 30
0.0
 11
4497.036631182484
 21
1951.845565851875
 31
0.0
  0
LINE
  5
8307
330
55E5
100
AcDbEntity
  8
Visible (ANSI)
100
AcDbLine
 10
4454.637667069817
 20
2025.850622026354
 30
0.0
 11
4457.137667046938
 21
2025.850283822595
 31
0.0
  0
LINE
  5
8309
330
55E5
100
AcDbEntity
  8
Visible (ANSI)
100
AcDbLine
 10
4497.036631234617
 20
1951.846062166979
 30
0.0
 11
4497.044404156279
 21
2025.844746278207
 31
0.0
  0
LINE
  5
830A
330
55E5
100
AcDbEntity
  8
Visible (ANSI)
100
AcDbLine
 10
4454.630675398369
 20
1951.85002023071
 30
0.0
 11
4454.637667069817
 21
2025.850622026354
 31
0.0
  0
LINE
  5
830B
330
55E5
100
AcDbEntity
  8
Visible (ANSI)
100
AcDbLine
 10
4458.137667037784
 20
2025.850148541092
 30
0.0
 11
4497.044404156279
 21
2025.844746278207
 31
0.0
  0
LINE
  5
830C
330
55E5
100
AcDbEntity
  8
Visible (ANSI)
100
AcDbLine
 10
4458.137667037784
 20
2025.850148541092
 30
0.0
 11
4457.137667046938
 21
2025.850283822595
 31
0.0
  0
DIMENSION
  5
8429
330
55E5
100
AcDbEntity
  8
Dimension (ANSI)
100
AcDbDimension
  2
*D9
 10
4570.535670600781
 20
1127.081254606564
 30
0.0
 11
3383.831017085646
 21
1127.2417937971
 31
0.0
 70
   160
  1
<>
 71
     5
 42
2315.419597057601
  3
Default (ANSI)
100
AcDbAlignedDimension
 13
2255.147234987623
 23
1357.583066207311
 33
0.0
 14
4570.577155680689
 24
1433.738695779767
 34
0.0
 50
179.992248940812
100
AcDbRotatedDimension
1001
ACAD
1000
DSTYLE
1002
{
1070
   289
1070
     1
1070
   271
1070
     0
1070
   272
1070
     0
1070
    48
1040
0.0
1070
    47
1040
0.0
1002
}
  0
DIMENSION
  5
845F
330
55E5
100
AcDbEntity
  8
Dimension (ANSI)
100
AcDbDimension
  2
*D10
 10
4500.461006867891
 20
1237.473846511544
 30
0.0
 11
3383.831017085646
 21
1237.624905896166
 31
0.0
 70
   160
  1
<>
 71
     5
 42
2245.329999890186
  3
Default (ANSI)
100
AcDbAlignedDimension
 13
2255.147234987623
 23
1357.583066207311
 33
0.0
 14
4500.477214551433
 24
1357.280937968376
 34
0.0
 50
179.992248940812
100
AcDbRotatedDimension
1001
ACAD
1000
DSTYLE
1002
{
1070
   289
1070
     1
1070
   271
1070
     0
1070
   272
1070
     0
1070
    48
1040
0.0
1070
    47
1040
0.0
1002
}
  0
LINE
  5
AD65
330
55E5
100
AcDbEntity
  8
0
100
AcDbLine
 10
6510.336943264751
 20
1354.917193352754
 30
0.0
 11
6510.33694326475
 21
2031.963629797728
 31
0.0
  0
LINE
  5
AD6B
330
55E5
100
AcDbEntity
  8
0
100
AcDbLine
 10
6590.96194326467
 20
2059.415740240968
 30
0.0
 11
6590.961943264672
 21
1354.917193352754
 31
0.0
  0
LINE
  5
AD6C
330
55E5
100
AcDbEntity
  8
0
100
AcDbLine
 10
6649.811943264655
 20
2005.549007794891
 30
0.0
 11
6649.811943264689
 21
1421.572303974202
 31
0.0
  0
LINE
  5
AD70
330
55E5
100
AcDbEntity
  8
0
100
AcDbLine
 10
6591.961943264691
 20
1421.572303974201
 30
0.0
 11
6649.811943264689
 21
1421.572303974202
 31
0.0
  0
LINE
  5
AD77
330
55E5
100
AcDbEntity
  8
0
100
AcDbLine
 10
6649.811943264873
 20
2006.699007784368
 30
0.0
 11
6649.811943264102
 21
2006.92956128569
 31
0.0
  0
LINE
  5
AD78
330
55E5
100
AcDbEntity
  8
0
100
AcDbLine
 10
6649.811943264873
 20
2005.549007794891
 30
0.0
 11
6649.811943264873
 21
2006.699007784368
 31
0.0
  0
LINE
  5
AD87
330
55E5
100
AcDbEntity
  8
0
100
AcDbLine
 10
5879.811943264797
 20
1354.917193352753
 30
0.0
 11
5879.811943264765
 21
2059.415740240968
 31
0.0
  0
LINE
  5
AD98
330
55E5
100
AcDbEntity
  8
0
100
AcDbLine
 10
5819.861943264791
 20
1652.151652490966
 30
0.0
 11
5819.861943264791
 21
1654.301361635734
 31
0.0
  0
LINE
  5
AD99
330
55E5
100
AcDbEntity
  8
0
100
AcDbLine
 10
5819.861943264791
 20
1652.151652490966
 30
0.0
 11
5879.811943264765
 21
1652.151652490966
 31
0.0
  0
LINE
  5
AD9B
330
55E5
100
AcDbEntity
  8
0
100
AcDbLine
 10
5819.861943264773
 20
1938.451359035607
 30
0.0
 11
5819.861943264773
 21
1936.301359055261
 31
0.0
  0
LINE
  5
AD9C
330
55E5
100
AcDbEntity
  8
0
100
AcDbLine
 10
5819.861943264773
 20
1936.301359055261
 30
0.0
 11
5819.861943264791
 21
1654.301361635733
 31
0.0
  0
LINE
  5
ADA9
330
55E5
100
AcDbEntity
  8
0
100
AcDbLine
 10
5819.861943264773
 20
1938.451359035588
 30
0.0
 11
5819.861943264773
 21
1939.601359025066
 31
0.0
  0
LINE
  5
ADAC
330
55E5
100
AcDbEntity
  8
0
100
AcDbLine
 10
5819.861943264773
 20
1939.601359025066
 30
0.0
 11
5819.861943264267
 21
1939.885294607461
 31
0.0
  0
LINE
  5
ADAE
330
55E5
100
AcDbEntity
  8
0
100
AcDbLine
 10
5819.861943264267
 20
1939.885294627135
 30
0.0
 11
5879.811943264765
 21
1939.885294627135
 31
0.0
  0
LINE
  5
AEBB
330
55E5
100
AcDbEntity
  8
0
100
AcDbLine
 10
5963.609134583037
 20
1840.119185398619
 30
0.0
 11
5927.710134583039
 21
1840.119185398619
 31
0.0
  0
LINE
  5
AEBC
330
55E5
100
AcDbEntity
  8
0
100
AcDbLine
 10
5927.710134583039
 20
1840.119185398619
 30
0.0
 11
5927.710134583039
 21
1960.119184300548
 31
0.0
  0
LINE
  5
AEC0
330
55E5
100
AcDbEntity
  8
0
100
AcDbLine
 10
5963.609134583037
 20
1960.11931958205
 30
0.0
 11
5927.710134583036
 21
1960.11931958205
 31
0.0
  0
LINE
  5
AEC1
330
55E5
100
AcDbEntity
  8
0
100
AcDbLine
 10
5963.609134583037
 20
1960.119184300548
 30
0.0
 11
5963.609134583037
 21
1840.119185398619
 31
0.0
  0
ARC
  5
AF0C
330
55E5
100
AcDbEntity
  8
0
100
AcDbCircle
 10
6302.804466464829
 20
1398.071546638021
 30
0.0
 40
14.29999999999893
100
AcDbArc
 50
0.0
 51
180.0
  0
CIRCLE
  5
AF0D
330
55E5
100
AcDbEntity
  8
0
100
AcDbCircle
 10
6302.804466464859
 20
1398.060047710272
 30
0.0
 40
14.29999999966565
  0
LINE
  5
AF0F
330
55E5
100
AcDbEntity
  8
0
100
AcDbLine
 10
6317.104466464857
 20
1398.060047715986
 30
0.0
 11
6317.104466464828
 21
1398.071546643735
 31
0.0
  0
ARC
  5
AF10
330
55E5
100
AcDbEntity
  8
0
100
AcDbCircle
 10
6536.861912689154
 20
1452.680546425974
 30
0.0
 40
14.10000000000068
100
AcDbArc
 50
0.0
 51
180.0
  0
CIRCLE
  5
AF11
330
55E5
100
AcDbEntity
  8
0
100
AcDbCircle
 10
6536.861912689154
 20
1452.680384088171
 30
0.0
 40
14.09999998162859
  0
LINE
  5
AF12
330
55E5
100
AcDbEntity
  8
0
100
AcDbLine
 10
6522.761912689154
 20
1452.680384080769
 30
0.0
 11
6522.761912689154
 21
1452.680546418574
 31
0.0
  0
LINE
  5
AF13
330
55E5
100
AcDbEntity
  8
0
100
AcDbLine
 10
6550.961912689158
 20
1452.68038409557
 30
0.0
 11
6550.961912689157
 21
1452.680546433374
 31
0.0
  0
CIRCLE
  5
AF14
330
55E5
100
AcDbEntity
  8
0
100
AcDbCircle
 10
6536.861943264812
 20
1757.480381299072
 30
0.0
 40
14.09999999999949
  0
ARC
  5
AF15
330
55E5
100
AcDbEntity
  8
0
100
AcDbCircle
 10
6536.861943264812
 20
1757.480543636877
 30
0.0
 40
14.09999999999949
100
AcDbArc
 50
0.0
 51
180.0
  0
LINE
  5
AF16
330
55E5
100
AcDbEntity
  8
0
100
AcDbLine
 10
6550.961943264809
 20
1757.480543644485
 30
0.0
 11
6550.961943264812
 21
1757.480381306682
 31
0.0
  0
LINE
  5
AF17
330
55E5
100
AcDbEntity
  8
0
100
AcDbLine
 10
6522.761943264808
 20
1757.480543629267
 30
0.0
 11
6522.761943264808
 21
1757.480381291463
 31
0.0
  0
ARC
  5
AF1C
330
55E5
100
AcDbEntity
  8
0
100
AcDbCircle
 10
6535.86194326479
 20
1860.11149060132
 30
0.0
 40
7.489999999999827
100
AcDbArc
 50
0.0
 51
180.0
  0
CIRCLE
  5
AF1D
330
55E5
100
AcDbEntity
  8
0
100
AcDbCircle
 10
6535.861943264794
 20
1860.109921335887
 30
0.0
 40
7.489999999999829
  0
LINE
  5
AF1E
330
55E5
100
AcDbEntity
  8
0
100
AcDbLine
 10
6528.371943264793
 20
1860.109921331527
 30
0.0
 11
6528.371943264787
 21
1860.111490596963
 31
0.0
  0
LINE
  5
AF1F
330
55E5
100
AcDbEntity
  8
0
100
AcDbLine
 10
6543.351943264794
 20
1860.109921340247
 30
0.0
 11
6543.351943264787
 21
1860.111490605681
 31
0.0
  0
ARC
  5
AF23
330
55E5
100
AcDbEntity
  8
0
100
AcDbCircle
 10
6536.861621480024
 20
1552.184924048862
 30
0.0
 40
7.259999999999822
100
AcDbArc
 50
0.0
 51
180.0
  0
CIRCLE
  5
AF24
330
55E5
100
AcDbEntity
  8
0
100
AcDbCircle
 10
6536.861621480031
 20
1552.183288495492
 30
0.0
 40
7.259999999999817
  0
LINE
  5
AF25
330
55E5
100
AcDbEntity
  8
0
100
AcDbLine
 10
6529.601621480029
 20
1552.183288491266
 30
0.0
 11
6529.601621480023
 21
1552.184924044638
 31
0.0
  0
LINE
  5
AF26
330
55E5
100
AcDbEntity
  8
0
100
AcDbLine
 10
6544.121621480029
 20
1552.183288499717
 30
0.0
 11
6544.121621480025
 21
1552.184924053088
 31
0.0
  0
LINE
  5
AF45
330
55E5
100
AcDbEntity
  8
0
100
AcDbLine
 10
2255.238545553098
 20
2032.550172980637
 30
0.0
 11
4500.568524897295
 21
2032.246421363658
 31
0.0
  0
LINE
  5
AF54
330
55E5
100
AcDbEntity
  8
0
100
AcDbLine
 10
6590.96194326467
 20
2059.415740240968
 30
0.0
 11
5879.811943264765
 21
2059.415740240968
 31
0.0
  0
LINE
  5
AF6C
330
55E5
100
AcDbEntity
  8
0
100
AcDbLine
 10
6590.961943264672
 20
1354.917193352754
 30
0.0
 11
5879.811943264797
 21
1354.917193352753
 31
0.0
  0
LINE
  5
AFA7
330
55E5
100
AcDbEntity
  8
0
100
AcDbLine
 10
5996.011943264832
 20
1433.607548530678
 30
0.0
 11
6432.011943264821
 21
1433.607548530704
 31
0.0
  0
LINE
  5
AFA8
330
55E5
100
AcDbEntity
  8
0
100
AcDbLine
 10
6432.011943264804
 20
1728.515574809097
 30
0.0
 11
6432.011943264821
 21
1433.607548530704
 31
0.0
  0
LINE
  5
AFB0
330
55E5
100
AcDbEntity
  8
0
100
AcDbLine
 10
5996.011943264814
 20
1728.515574809071
 30
0.0
 11
6185.161943264787
 21
1728.515574809082
 31
0.0
  0
LINE
  5
AFB1
330
55E5
100
AcDbEntity
  8
0
100
AcDbLine
 10
6242.861943264788
 20
1728.515574809085
 30
0.0
 11
6431.861943264784
 21
1728.515574809097
 31
0.0
  0
LINE
  5
AFB5
330
55E5
100
AcDbEntity
  8
0
100
AcDbLine
 10
5996.011943264832
 20
1433.607548530678
 30
0.0
 11
5996.011943264814
 21
1728.515574809071
 31
0.0
  0
LINE
  5
AFC5
330
55E5
100
AcDbEntity
  8
0
100
AcDbLine
 10
6242.861943264788
 20
1728.515574828759
 30
0.0
 11
6185.161943264787
 21
1728.515574828756
 31
0.0
  0
LINE
  5
D457
330
55E5
100
AcDbEntity
  8
0
100
AcDbLine
 10
6076.642943264777
 20
1993.866339330383
 30
0.0
 11
6076.642943264793
 21
1729.716477009332
 31
0.0
  0
LINE
  5
D45A
330
55E5
100
AcDbEntity
  8
0
100
AcDbLine
 10
6376.129770466409
 20
1993.865277350929
 30
0.0
 11
6078.606116063141
 21
1993.865277350912
 31
0.0
  0
LINE
  5
D45C
330
55E5
100
AcDbEntity
  8
0
100
AcDbLine
 10
6378.09294326479
 20
1729.71647700935
 30
0.0
 11
6378.092943264775
 21
1993.866339330399
 31
0.0
  0
LINE
  5
D45F
330
55E5
100
AcDbEntity
  8
0
100
AcDbLine
 10
6076.642943264793
 20
1729.716477009332
 30
0.0
 11
6378.09294326479
 21
1729.71647700935
 31
0.0
  0
LINE
  5
D468
330
55E5
100
AcDbEntity
  8
0
100
AcDbLine
 10
6076.642943264777
 20
1993.866339330383
 30
0.0
 11
6378.092943264775
 21
1993.866339330399
 31
0.0
  0
LINE
  5
D4ED
330
55E5
100
AcDbEntity
  8
0
100
AcDbLine
 10
5941.211943264789
 20
1420.066926252023
 30
0.0
 11
6510.336943264751
 21
1420.066926252024
 31
0.0
  0
LINE
  5
D4F1
330
55E5
100
AcDbEntity
  8
0
100
AcDbLine
 10
5941.211943264789
 20
1354.917193352753
 30
0.0
 11
5941.211943264789
 21
2031.963629797702
 31
0.0
  0
LINE
  5
D4F9
330
55E5
100
AcDbEntity
  8
0
100
AcDbLine
 10
6401.23694326477
 20
1928.466522539201
 30
0.0
 11
6401.236943264779
 21
1792.966523779102
 31
0.0
  0
ARC
  5
D4FB
330
55E5
100
AcDbEntity
  8
0
100
AcDbCircle
 10
6402.736943264779
 20
1792.966523779102
 30
0.0
 40
1.49999999999998
100
AcDbArc
 50
180.0
 51
270.0
  0
ARC
  5
D4FC
330
55E5
100
AcDbEntity
  8
0
100
AcDbCircle
 10
6402.736943264772
 20
1928.466522539201
 30
0.0
 40
1.49999999999998
100
AcDbArc
 50
90.0
 51
180.0
  0
LINE
  5
D4FF
330
55E5
100
AcDbEntity
  8
0
100
AcDbLine
 10
6402.736943264779
 20
1791.466523792828
 30
0.0
 11
6436.736943264779
 21
1791.46652379283
 31
0.0
  0
LINE
  5
D500
330
55E5
100
AcDbEntity
  8
0
100
AcDbLine
 10
6436.73694326477
 20
1929.966522525475
 30
0.0
 11
6402.736943264772
 21
1929.966522525474
 31
0.0
  0
ARC
  5
D503
330
55E5
100
AcDbEntity
  8
0
100
AcDbCircle
 10
6436.736943264779
 20
1792.966523779104
 30
0.0
 40
1.499999999999975
100
AcDbArc
 50
270.0
 51
0.0
  0
ARC
  5
D504
330
55E5
100
AcDbEntity
  8
0
100
AcDbCircle
 10
6436.73694326477
 20
1928.466522539202
 30
0.0
 40
1.499999999999953
100
AcDbArc
 50
0.0
 51
90.0
  0
LINE
  5
D506
330
55E5
100
AcDbEntity
  8
0
100
AcDbLine
 10
6438.236943264778
 20
1792.966523779104
 30
0.0
 11
6438.236943264771
 21
1928.466522539202
 31
0.0
  0
LINE
  5
D508
330
55E5
100
AcDbEntity
  8
0
100
AcDbLine
 10
6401.23694326477
 20
1928.466630764402
 30
0.0
 11
6401.23694326477
 21
1928.466522539201
 31
0.0
  0
LINE
  5
D509
330
55E5
100
AcDbEntity
  8
0
100
AcDbLine
 10
6438.236943264771
 20
1928.466522539202
 30
0.0
 11
6438.236943264769
 21
1928.466630764405
 31
0.0
  0
ARC
  5
D50A
330
55E5
100
AcDbEntity
  8
0
100
AcDbCircle
 10
6436.736943264769
 20
1928.466630764405
 30
0.0
 40
1.499999999999953
100
AcDbArc
 50
0.0
 51
90.0
  0
ARC
  5
D50B
330
55E5
100
AcDbEntity
  8
0
100
AcDbCircle
 10
6402.736943264772
 20
1928.466630764402
 30
0.0
 40
1.49999999999998
100
AcDbArc
 50
90.0
 51
180.0
  0
LINE
  5
D510
330
55E5
100
AcDbEntity
  8
0
100
AcDbLine
 10
6436.736943264769
 20
1929.966630750678
 30
0.0
 11
6402.736943264772
 21
1929.966630750676
 31
0.0
  0
LINE
  5
D55F
330
55E5
100
AcDbEntity
  8
0
100
AcDbLine
 10
5963.609134583037
 20
1476.143022982035
 30
0.0
 11
5927.710134583039
 21
1476.143022982035
 31
0.0
  0
LINE
  5
D560
330
55E5
100
AcDbEntity
  8
0
100
AcDbLine
 10
5927.710134583039
 20
1476.143022982035
 30
0.0
 11
5927.710134583039
 21
1596.143021883964
 31
0.0
  0
LINE
  5
D561
330
55E5
100
AcDbEntity
  8
0
100
AcDbLine
 10
5963.609134583037
 20
1596.143157165466
 30
0.0
 11
5927.710134583036
 21
1596.143157165466
 31
0.0
  0
LINE
  5
D562
330
55E5
100
AcDbEntity
  8
0
100
AcDbLine
 10
5963.609134583037
 20
1596.143021883964
 30
0.0
 11
5963.609134583037
 21
1476.143022982035
 31
0.0
  0
LINE
  5
D563
330
55E5
100
AcDbEntity
  8
0
100
AcDbLine
 10
6649.811943264102
 20
2006.92956128569
 30
0.0
 11
6590.96194326467
 21
2006.92956128569
 31
0.0
  0
SOLID
  5
D568
330
55E5
100
AcDbEntity
  8
Layer2
100
AcDbTrace
 10
5723.709291073665
 20
2180.737516545858
 30
0.0
 11
5723.749291073666
 21
2180.737516545858
 31
0.0
 12
5723.729291073664
 22
2180.617516545858
 32
0.0
 13
5723.729291073664
 23
2180.617516545858
 33
0.0
  0
DIMENSION
  5
D57A
330
55E5
100
AcDbEntity
  8
Dimension (ANSI)
100
AcDbDimension
  2
*D11
 10
5612.578720255863
 20
1939.984804935193
 30
0.0
 11
5612.578720255863
 21
1796.042990628086
 31
0.0
 70
   160
  1
<>
 71
     5
 42
287.8836286141538
  3
Default (ANSI)
100
AcDbAlignedDimension
 13
5819.861943264791
 23
1652.101176321039
 33
0.0
 14
5819.861943263925
 24
1939.984804935193
 34
0.0
 50
270.0
100
AcDbRotatedDimension
1001
ACAD
1000
DSTYLE
1002
{
1070
   289
1070
     1
1070
    73
1070
     0
1070
    74
1070
     0
1070
   271
1070
     0
1070
   272
1070
     0
1070
    48
1040
0.0
1070
    47
1040
0.0
1002
}
  0
LINE
  5
D59B
330
55E5
100
AcDbEntity
  8
Dimension (ANSI)
100
AcDbLine
 10
6676.270276597654
 20
2007.029554541271
 30
0.0
 11
6869.395276598227
 21
2007.029554541271
 31
0.0
  0
LINE
  5
D59C
330
55E5
100
AcDbEntity
  8
Dimension (ANSI)
100
AcDbLine
 10
6676.270276598234
 20
1421.522310738703
 30
0.0
 11
6869.395276598227
 21
1421.522310738703
 31
0.0
  0
LINE
  5
D59D
330
55E5
100
AcDbEntity
  8
Dimension (ANSI)
100
AcDbLine
 10
6816.478609931556
 20
1965.362887874604
 30
0.0
 11
6816.478609931556
 21
1781.565076963243
 31
0.0
  0
LINE
  5
D59E
330
55E5
100
AcDbEntity
  8
Dimension (ANSI)
100
AcDbLine
 10
6816.478609931556
 20
1463.18897740537
 30
0.0
 11
6816.478609931556
 21
1646.986788316722
 31
0.0
  0
SOLID
  5
D59F
330
55E5
100
AcDbEntity
  8
Dimension (ANSI)
100
AcDbTrace
 10
6809.534165487118
 20
1965.362887874604
 30
0.0
 11
6823.423054376006
 21
1965.362887874604
 31
0.0
 12
6816.478609931556
 22
2007.029554541271
 32
0.0
 13
6816.478609931556
 23
2007.029554541271
 33
0.0
  0
SOLID
  5
D5A0
330
55E5
100
AcDbEntity
  8
Dimension (ANSI)
100
AcDbTrace
 10
6809.534165487105
 20
1463.18897740537
 30
0.0
 11
6823.423054376006
 21
1463.18897740537
 31
0.0
 12
6816.478609931556
 22
1421.522310738703
 32
0.0
 13
6816.478609931556
 23
1421.522310738703
 33
0.0
  0
MTEXT
  5
D5A1
330
55E5
100
AcDbEntity
  8
Dimension (ANSI)
100
AcDbMText
 10
6816.478609931556
 20
1714.275932639983
 30
0.0
 40
50.80000162124634
 41
0.0
 71
     5
 72
     1
  1
\A1;586
  7
Note Text (ANSI)
 11
0.0000000000000001
 21
1.0
 31
0.0
 73
     1
 44
1.0
  0
LINE
  5
D5A2
330
55E5
100
AcDbEntity
  8
OUTLINE
100
AcDbLine
 10
6605.857130722111
 20
1354.917193352754
 30
0.0
 11
6959.234718287037
 21
1354.917193352754
 31
0.0
  0
LINE
  5
D5A3
330
55E5
100
AcDbEntity
  8
OUTLINE
100
AcDbLine
 10
6616.963231204258
 20
2059.515726712785
 30
0.0
 11
6953.799586543785
 21
2059.515726712785
 31
0.0
  0
LINE
  5
D5A4
330
55E5
100
AcDbEntity
  8
OUTLINE
100
AcDbLine
 10
6918.220363796584
 20
1354.917193352754
 30
0.0
 11
6918.220363796584
 21
1641.317473764926
 31
0.0
  0
LINE
  5
D5A5
330
55E5
100
AcDbEntity
  8
OUTLINE
100
AcDbLine
 10
6918.220363796584
 20
2059.515726712785
 30
0.0
 11
6918.220363796584
 21
1794.147853456673
 31
0.0
  0
MTEXT
  5
D5A6
330
55E5
100
AcDbEntity
  8
Layer1
100
AcDbMText
 10
6918.220363796584
 20
1707.21646003277
 30
0.0
 40
0.3048000037670135
 41
0.0
 71
     5
 72
     1
  1
\A1;704.5985
 73
     1
 44
1.0
  0
SOLID
  5
D5A7
330
55E5
100
AcDbEntity
  8
Dimension (ANSI)
100
AcDbTrace
 10
6911.275919352135
 20
2017.849060046118
 30
0.0
 11
6925.164808241027
 21
2017.849060046118
 31
0.0
 12
6918.220363796584
 22
2059.515726712785
 32
0.0
 13
6918.220363796584
 23
2059.515726712785
 33
0.0
  0
SOLID
  5
D5A8
330
55E5
100
AcDbEntity
  8
Dimension (ANSI)
100
AcDbTrace
 10
6911.275919352135
 20
1396.58386001942
 30
0.0
 11
6925.164808241027
 21
1396.58386001942
 31
0.0
 12
6918.220363796584
 22
1354.917193352754
 32
0.0
 13
6918.220363796584
 23
1354.917193352754
 33
0.0
  0
MTEXT
  5
D5A9
330
55E5
100
AcDbEntity
  8
Dimension (ANSI)
100
AcDbMText
 10
6921.375142549057
 20
1714.275932639983
 30
0.0
 40
50.80000162124634
 41
0.0
 71
     5
 72
     1
  1
\A1;705
  7
Note Text (ANSI)
 11
0.0000000000000001
 21
1.0
 31
0.0
 73
     1
 44
1.0
  0
LINE
  5
D5AE
330
55E5
100
AcDbEntity
  8
0
100
AcDbLine
 10
5879.811943264765
 20
2032.059835239395
 30
0.0
 11
6590.96194326467
 21
2031.9636297977
 31
0.0
  0
CIRCLE
  5
D633
330
55E5
100
AcDbEntity
  8
Visible (ANSI)
100
AcDbCircle
 10
4545.939099801879
 20
1511.677282349174
 30
0.0
 40
12.7
  0
CIRCLE
  5
D634
330
55E5
100
AcDbEntity
  8
Visible (ANSI)
100
AcDbCircle
 10
4545.939099801879
 20
1469.196963016049
 30
0.0
 40
12.7
  0
ENDSEC
  0
SECTION
  2
OBJECTS
  0
DICTIONARY
  5
5586
330
0
100
AcDbDictionary
281
     1
  3
ACAD_2007HEADERVARS_RT
350
D815
  3
ACAD_COLOR
350
55DC
  3
ACAD_GROUP
350
5587
  3
ACAD_LAYOUT
350
55DB
  3
ACAD_MATERIAL
350
558A
  3
ACAD_MLEADERSTYLE
350
55DF
  3
ACAD_MLINESTYLE
350
55D8
  3
ACAD_PLOTSETTINGS
350
55DA
  3
ACAD_PLOTSTYLENAME
350
5588
  3
ACAD_SCALELIST
350
55BC
  3
ACAD_TABLESTYLE
350
55DD
  3
ACAD_VISUALSTYLE
350
55A3
  3
ACDB_RECOMPOSE_DATA
350
D814
  3
AcDbVariableDictionary
350
677D
  3
AcmDictionary
350
569F
  3
AMG
350
5658
  3
AMGSNAPSETTINGS
350
5F19
  0
DICTIONARY
  5
6D29
330
5582
100
AcDbDictionary
280
     1
281
     1
  0
DICTIONARY
  5
6775
330
557C
100
AcDbDictionary
280
     1
281
     1
  3
ACAD_LAYERSTATES
360
6776
  0
DICTIONARY
  5
675C
330
55CE
100
AcDbDictionary
280
     1
281
     1
  3
ADSK_XREC_LAYER_RECONCILED
360
675D
  0
DICTIONARY
  5
675E
330
55E9
100
AcDbDictionary
280
     1
281
     1
  3
ADSK_XREC_LAYER_RECONCILED
360
675F
  0
DICTIONARY
  5
6762
330
55FD
100
AcDbDictionary
280
     1
281
     1
  3
ADSK_XREC_LAYER_RECONCILED
360
6763
  0
DICTIONARY
  5
6764
330
55FE
100
AcDbDictionary
280
     1
281
     1
  3
ADSK_XREC_LAYER_RECONCILED
360
6765
  0
DICTIONARY
  5
676A
330
577F
100
AcDbDictionary
280
     1
281
     1
  3
ADSK_XREC_LAYER_RECONCILED
360
676B
  0
DICTIONARY
  5
676C
330
5780
100
AcDbDictionary
280
     1
281
     1
  3
ADSK_XREC_LAYER_RECONCILED
360
676D
  0
DICTIONARY
  5
676E
330
5781
100
AcDbDictionary
280
     1
281
     1
  3
ADSK_XREC_LAYER_RECONCILED
360
676F
  0
DICTIONARY
  5
6770
330
5783
100
AcDbDictionary
280
     1
281
     1
  3
ADSK_XREC_LAYER_RECONCILED
360
6771
  0
DICTIONARY
  5
6ADA
330
55E5
100
AcDbDictionary
280
     1
281
     1
  3
ACAD_SORTENTS
360
6ADB
  0
DICTIONARY
  5
D815
102
{ACAD_REACTORS
330
5586
102
}
330
5586
100
AcDbDictionary
281
     1
  3
DIMARCSYM
350
D816
  3
DIMLTEX1
350
D818
  3
DIMLTEX2
350
D819
  3
DIMLTYPE
350
D817
  0
DICTIONARY
  5
55DC
102
{ACAD_REACTORS
330
5586
102
}
330
5586
100
AcDbDictionary
281
     1
  0
DICTIONARY
  5
5587
102
{ACAD_REACTORS
330
5586
102
}
330
5586
100
AcDbDictionary
281
     1
  0
DICTIONARY
  5
55DB
102
{ACAD_REACTORS
330
5586
102
}
330
5586
100
AcDbDictionary
281
     1
  3
Layout1
350
55E4
  3
Model
350
55E8
  0
DICTIONARY
  5
558A
102
{ACAD_REACTORS
330
5586
102
}
330
5586
100
AcDbDictionary
281
     1
  3
ByBlock
350
5593
  3
ByLayer
350
558B
  3
Global
350
559B
  0
DICTIONARY
  5
55DF
102
{ACAD_REACTORS
330
5586
102
}
330
5586
100
AcDbDictionary
281
     1
  3
Standard
350
55E0
  0
DICTIONARY
  5
55D8
102
{ACAD_REACTORS
330
5586
102
}
330
5586
100
AcDbDictionary
281
     1
  3
Standard
350
55D9
  0
DICTIONARY
  5
55DA
102
{ACAD_REACTORS
330
5586
102
}
330
5586
100
AcDbDictionary
281
     1
  0
ACDBDICTIONARYWDFLT
  5
5588
102
{ACAD_REACTORS
330
5586
102
}
330
5586
100
AcDbDictionary
281
     1
  3
Normal
350
5589
100
AcDbDictionaryWithDefault
340
5589
  0
DICTIONARY
  5
55BC
102
{ACAD_REACTORS
330
5586
102
}
330
5586
100
AcDbDictionary
281
     1
  3
A0
350
55BD
  3
A1
350
55BE
  3
A2
350
55BF
  3
A3
350
55C0
  3
A4
350
55C1
  3
A5
350
55C2
  3
A6
350
55C3
  3
A7
350
55C4
  3
A8
350
55C5
  3
A9
350
55C6
  3
B0
350
55C7
  3
B1
350
55C8
  3
B2
350
55C9
  3
B3
350
55CA
  3
B4
350
55CB
  3
B5
350
55CC
  3
B6
350
55CD
  0
DICTIONARY
  5
55DD
102
{ACAD_REACTORS
330
5586
102
}
330
5586
100
AcDbDictionary
281
     1
  3
Standard
350
55DE
  0
DICTIONARY
  5
55A3
102
{ACAD_REACTORS
330
5586
102
}
330
5586
100
AcDbDictionary
281
     1
  3
2dWireframe
350
55A9
  3
Basic
350
55A8
  3
Brighten
350
55AF
  3
ColorChange
350
55B3
  3
Conceptual
350
55AC
  3
Dim
350
55AE
  3
EdgeColorOff
350
55BB
  3
Facepattern
350
55B2
  3
Flat
350
55A4
  3
FlatWithEdges
350
55A5
  3
Gouraud
350
55A6
  3
GouraudWithEdges
350
55A7
  3
Hidden
350
55AB
  3
JitterOff
350
55B9
  3
Linepattern
350
55B1
  3
OverhangOff
350
55BA
  3
Realistic
350
55AD
  3
Shaded
350
55B8
  3
Shaded with edges
350
55B7
  3
Shades of Gray
350
55B4
  3
Sketchy
350
55B5
  3
Thicken
350
55B0
  3
Wireframe
350
55AA
  3
X-Ray
350
55B6
  0
XRECORD
  5
D814
102
{ACAD_REACTORS
330
5586
102
}
330
5586
100
AcDbXrecord
280
     1
 90
        1
330
55DE
  0
DICTIONARY
  5
677D
102
{ACAD_REACTORS
330
5586
102
}
330
5586
100
AcDbDictionary
281
     1
  3
CANNOSCALE
350
6780
  3
CMLEADERSTYLE
350
677F
  3
CTABLESTYLE
350
677E
  3
DIMASSOC
350
8483
  3
INDEXCTL
350
8482
  3
SORTENTS
350
8481
  3
XCLIPFRAME
350
D812
  0
DICTIONARY
  5
569F
102
{ACAD_REACTORS
330
5586
102
}
330
5586
100
AcDbDictionary
281
     1
  3
AcmStdDictionary
350
56A8
  0
DICTIONARY
  5
5658
102
{ACAD_REACTORS
330
5586
102
}
330
5586
100
AcDbDictionary
281
     1
  0
DICTIONARY
  5
5F19
102
{ACAD_REACTORS
330
5586
102
}
330
5586
100
AcDbDictionary
281
     1
  0
DICTIONARY
  5
6776
102
{ACAD_REACTORS
330
6775
102
}
330
6775
100
AcDbDictionary
281
     1
  0
XRECORD
  5
675D
102
{ACAD_REACTORS
330
675C
102
}
330
675C
100
AcDbXrecord
280
     1
290
     1
  0
XRECORD
  5
675F
102
{ACAD_REACTORS
330
675E
102
}
330
675E
100
AcDbXrecord
280
     1
290
     1
  0
XRECORD
  5
6763
102
{ACAD_REACTORS
330
6762
102
}
330
6762
100
AcDbXrecord
280
     1
290
     1
  0
XRECORD
  5
6765
102
{ACAD_REACTORS
330
6764
102
}
330
6764
100
AcDbXrecord
280
     1
290
     1
  0
XRECORD
  5
676B
102
{ACAD_REACTORS
330
676A
102
}
330
676A
100
AcDbXrecord
280
     1
290
     1
  0
XRECORD
  5
676D
102
{ACAD_REACTORS
330
676C
102
}
330
676C
100
AcDbXrecord
280
     1
290
     1
  0
XRECORD
  5
676F
102
{ACAD_REACTORS
330
676E
102
}
330
676E
100
AcDbXrecord
280
     1
290
     1
  0
XRECORD
  5
6771
102
{ACAD_REACTORS
330
6770
102
}
330
6770
100
AcDbXrecord
280
     1
290
     1
  0
SORTENTSTABLE
  5
6ADB
102
{ACAD_REACTORS
330
6ADA
102
}
330
6ADA
100
AcDbSortentsTable
330
55E5
331
AF1F
  5
AF1F
331
AF17
  5
AF17
331
D5A4
  5
D5A5
331
AF13
  5
AF13
331
D4F9
  5
D4FB
331
D5A0
  5
D5A1
331
63DC
  5
63DC
331
63BD
  5
63BD
331
637A
  5
637A
331
6683
  5
6684
331
7EBC
  5
7EBC
331
667F
  5
6680
331
667B
  5
667C
331
7EAD
  5
7EAD
331
AD78
  5
AD78
331
82C1
  5
82C1
331
7EB4
  5
7EB4
331
6BA5
  5
6BA5
331
7EA9
  5
7EA9
331
7EB0
  5
7EB0
331
AF0F
  5
AF0F
331
D59C
  5
D59D
331
D4F1
  5
D4F9
331
D4ED
  5
D4F1
331
D568
  5
D57A
331
6376
  5
6376
331
63B5
  5
63B5
331
6372
  5
6372
331
63CC
  5
63CC
331
63AD
  5
63AD
331
636A
  5
636A
331
6677
  5
6678
331
7BE6
  5
7BE6
331
6673
  5
6674
331
7BE2
  5
7BE2
331
7EA5
  5
7EA5
331
7F8F
  5
7F8F
331
8095
  5
8095
331
7BDE
  5
7BDE
331
AD70
  5
AD70
331
7F8B
  5
7F8B
331
666F
  5
6670
331
666B
  5
666C
331
7D8D
  5
7D8D
331
AD6C
  5
AD6C
331
AEBB
  5
AEBB
331
D560
  5
D561
331
640F
  5
640F
331
242A
  5
242A
331
639D
  5
639D
331
6667
  5
6668
331
7F3F
  5
7F3F
331
6663
  5
6664
331
7C52
  5
7C52
331
7F3B
  5
7F3B
331
7C4E
  5
7C4E
331
830C
  5
830C
331
7F17
  5
7F17
331
7C4A
  5
7C4A
331
AD9B
  5
AD9B
331
D510
  5
D55F
331
AD87
  5
AD87
331
AF26
  5
AF26
331
AFC5
  5
D457
331
78E
  5
78E
331
D508
  5
D509
331
63EF
  5
63EF
331
78A
  5
78A
331
6391
  5
6391
331
786
  5
786
331
782
  5
782
331
6467
  5
6467
331
6B1E
  5
6B1E
331
7FD5
  5
7FD5
331
7FD1
  5
7FD1
331
82FC
  5
82FC
331
7EF7
  5
7EF7
331
7EF3
  5
7EF3
331
7CE1
  5
7CE1
331
82F8
  5
82F8
331
AF1E
  5
AF1E
331
D504
  5
D506
331
AFB5
  5
AFC5
331
D500
  5
D503
331
D5A7
  5
D5A8
331
AF16
  5
AF16
331
AFB1
  5
AFB5
331
D4FC
  5
D4FF
331
D5A3
  5
D5A4
331
AF12
  5
AF12
331
6381
  5
6381
331
637D
  5
637D
331
63DB
  5
63DB
331
63BC
  5
63BC
331
6379
  5
6379
331
63D7
  5
63D7
331
642A
  5
642A
331
6682
  5
6683
331
667E
  5
667F
331
667A
  5
667B
331
7EAC
  5
7EAC
331
7EB7
  5
7EB7
331
7EB3
  5
7EB3
331
7EA8
  5
7EA8
331
D59F
  5
D5A0
331
D59B
  5
D59C
331
6375
  5
6375
331
63CF
  5
63CF
331
6426
  5
6426
331
6371
  5
6371
331
6422
  5
6422
331
AD77
  5
AD77
331
6676
  5
6677
331
8094
  5
8094
331
7EA4
  5
7EA4
331
7F8E
  5
7F8E
331
6672
  5
6673
331
7BE1
  5
7BE1
331
7BDD
  5
7BDD
331
7F8A
  5
7F8A
331
666E
  5
666F
331
666A
  5
666B
331
7D8C
  5
7D8C
331
AD6B
  5
AD6B
331
663C
  5
663C
331
6638
  5
6638
331
D563
  5
D568
331
D468
  5
D4ED
331
D55F
  5
D560
331
ADAE
  5
ADAE
331
D45C
  5
D45F
331
63A4
  5
63A4
331
2429
  5
2429
331
791
  5
791
331
63FE
  5
63FE
331
63FA
  5
63FA
331
6666
  5
6667
331
7F3E
  5
7F3E
331
6662
  5
6663
331
7C51
  5
7C51
331
7D80
  5
7D80
331
7F3A
  5
7F3A
331
7C4D
  5
7C4D
331
845F
  5
845F
331
830B
  5
830B
331
7C49
  5
7C49
331
7D78
  5
7D78
331
AF45
  5
AF45
331
AF25
  5
AF25
331
D50B
  5
D510
331
D5AE
  5
AF54
331
78D
  5
78D
331
6394
  5
6394
331
6390
  5
6390
331
789
  5
789
331
785
  5
785
331
781
  5
781
331
8307
  5
8307
331
6462
  5
6462
331
7FD4
  5
7FD4
331
7FD0
  5
7FD0
331
7CE4
  5
7CE4
331
82FB
  5
82FB
331
7EF6
  5
7EF6
331
7EF2
  5
7EF2
331
AF1D
  5
AF1D
331
D503
  5
D504
331
D4FF
  5
D500
331
D5A6
  5
D5A7
331
AF15
  5
AF15
331
AF11
  5
AF11
331
AFB0
  5
AFB1
331
D4FB
  5
D4FC
331
D5A2
  5
D5A3
331
637C
  5
637C
331
63DA
  5
63DA
331
6378
  5
6378
331
82F7
  5
82F7
331
7CDC
  5
7CDC
331
6681
  5
6682
331
7BEC
  5
7BEC
331
7EAF
  5
7EAF
331
7EBA
  5
7EBA
331
667D
  5
667E
331
6679
  5
667A
331
7FAD
  5
7FAD
331
7EAB
  5
7EAB
331
7EB6
  5
7EB6
331
AF0D
  5
AF0D
331
D59E
  5
D59F
331
AFA8
  5
AFB0
331
AEC1
  5
AEC1
331
6374
  5
6374
331
63AF
  5
63AF
331
6370
  5
6370
331
7EA7
  5
7EA7
331
6675
  5
6676
331
7EA3
  5
7EA3
331
6637
  5
6637
331
7F8D
  5
7F8D
331
6671
  5
6672
331
7BE0
  5
7BE0
331
7BDC
  5
7BDC
331
7C68
  5
7C68
331
805F
  5
805F
331
7F89
  5
7F89
331
666D
  5
666E
331
6669
  5
666A
331
7F65
  5
7F65
331
7C64
  5
7C64
331
7D8B
  5
7D8B
331
AF6C
  5
AFA7
331
D562
  5
D563
331
D45F
  5
D468
331
AF54
  5
AF6C
331
ADA9
  5
ADA9
331
2428
  5
2428
331
790
  5
790
331
63FD
  5
63FD
331
63F9
  5
63F9
331
668C
  5
68C3
331
6665
  5
6666
331
7F3D
  5
7F3D
331
7C50
  5
7C50
331
D57A
  5
D59B
331
7F39
  5
7F39
331
7C4C
  5
7C4C
331
7FFB
  5
7FFB
331
830A
  5
830A
331
7C48
  5
7C48
331
D457
  5
D45A
331
AD99
  5
AD99
331
AF24
  5
AF24
331
D50A
  5
D50B
331
78C
  5
78C
331
6393
  5
6393
331
638F
  5
638F
331
788
  5
788
331
D5A9
  5
D5AE
331
784
  5
784
331
63E5
  5
63E5
331
8306
  5
8306
331
7D6F
  5
7D6F
331
3EC0
  5
3EC0
331
7C44
  5
7C44
331
7FD3
  5
7FD3
331
7C40
  5
7C40
331
7FCF
  5
7FCF
331
7EF9
  5
7EF9
331
7EF5
  5
7EF5
331
82FA
  5
82FA
331
AF1C
  5
AF1C
331
D506
  5
D508
331
D5A5
  5
D5A6
331
AF14
  5
AF14
331
AF10
  5
AF10
331
D5A1
  5
D5A2
331
6383
  5
6383
331
63DD
  5
63DD
331
63BE
  5
63BE
331
637B
  5
637B
331
63D9
  5
63D9
331
63BA
  5
63BA
331
7CDF
  5
7CDF
331
82F6
  5
82F6
331
7CDB
  5
7CDB
331
7EBD
  5
7EBD
331
6680
  5
6681
331
667C
  5
667D
331
7C9F
  5
7C9F
331
7BEB
  5
7BEB
331
7EB9
  5
7EB9
331
6678
  5
6679
331
7EB1
  5
7EB1
331
D59D
  5
D59E
331
AF0C
  5
AF0C
331
AFA7
  5
AFA8
331
AEC0
  5
AEC0
331
6377
  5
6377
331
6373
  5
6373
331
63CD
  5
63CD
331
636F
  5
636F
331
63C5
  5
63C5
331
641C
  5
641C
331
6674
  5
6675
331
7BE3
  5
7BE3
331
7BDF
  5
7BDF
331
8092
  5
8092
331
7F8C
  5
7F8C
331
6670
  5
6671
331
7F88
  5
7F88
331
666C
  5
666D
331
6668
  5
6669
331
7C63
  5
7C63
331
AEBC
  5
AEBC
331
D561
  5
D562
331
ADAC
  5
ADAC
331
D45A
  5
D45C
331
63FC
  5
63FC
331
AD65
  5
AD65
331
6664
  5
6665
331
7B6B
  5
7B6B
331
8036
  5
8036
331
7F3C
  5
7F3C
331
7C53
  5
7C53
331
717B
  5
717B
331
7C4F
  5
7C4F
331
7F38
  5
7F38
331
647C
  5
647C
331
8309
  5
8309
331
AD9C
  5
AD9C
331
AD98
  5
AD98
331
AF23
  5
AF23
331
D509
  5
D50A
331
78F
  5
78F
331
6396
  5
6396
331
78B
  5
78B
331
6392
  5
6392
331
D5A8
  5
D5A9
331
63EC
  5
63EC
331
787
  5
787
331
783
  5
783
331
7C47
  5
7C47
331
7FD2
  5
7FD2
331
68C3
  5
6A54
331
7FCE
  5
7FCE
331
7CE6
  5
7CE6
331
82FD
  5
82FD
331
8429
  5
8429
331
7EF8
  5
7EF8
331
6438
  5
6438
331
7EF4
  5
7EF4
331
82F9
  5
82F9
  0
XRECORD
  5
D816
102
{ACAD_REACTORS
330
D815
102
}
330
D815
100
AcDbXrecord
280
     1
 70
     1
  0
XRECORD
  5
D818
102
{ACAD_REACTORS
330
D815
102
}
330
D815
100
AcDbXrecord
280
     1
340
55D4
  0
XRECORD
  5
D819
102
{ACAD_REACTORS
330
D815
102
}
330
D815
100
AcDbXrecord
280
     1
340
55D4
  0
XRECORD
  5
D817
102
{ACAD_REACTORS
330
D815
102
}
330
D815
100
AcDbXrecord
280
     1
340
55D4
  0
LAYOUT
  5
55E4
102
{ACAD_REACTORS
330
55DB
102
}
330
55DB
100
AcDbPlotSettings
  1

  2
PTR-PEG02
  4

  6

 40
0.0
 41
0.0
 42
0.0
 43
0.0
 44
0.0
 45
0.0
 46
0.0
 47
0.0
 48
0.0
 49
0.0
140
0.0
141
0.0
142
1.0
143
1.0
 70
   688
 72
     0
 73
     0
 74
     5
  7

 75
    16
147
1.0
 76
     0
 77
     2
 78
   300
148
0.0
149
0.0
100
AcDbLayout
  1
Layout1
 70
     0
 71
     1
 10
0.0
 20
0.0
 11
12.0
 21
9.0
 12
0.0
 22
0.0
 32
0.0
 14
1.000000000000000E+20
 24
1.000000000000000E+20
 34
1.000000000000000E+20
 15
-1.000000000000000E+20
 25
-1.000000000000000E+20
 35
-1.000000000000000E+20
146
0.0
 13
0.0
 23
0.0
 33
0.0
 16
1.0
 26
0.0
 36
0.0
 17
0.0
 27
1.0
 37
0.0
 76
     0
330
55E1
  0
LAYOUT
  5
55E8
102
{ACAD_XDICTIONARY
360
677B
102
}
102
{ACAD_REACTORS
330
55DB
102
}
330
55DB
100
AcDbPlotSettings
  1

  2
PTR-PEG02
  4

  6

 40
0.0
 41
0.0
 42
0.0
 43
0.0
 44
0.0
 45
0.0
 46
0.0
 47
0.0
 48
0.0
 49
0.0
140
0.0
141
0.0
142
1.0
143
1.0
 70
  1712
 72
     0
 73
     0
 74
     0
  7

 75
     0
147
1.0
 76
     0
 77
     2
 78
   300
148
0.0
149
0.0
100
AcDbLayout
  1
Model
 70
     1
 71
     0
 10
0.0
 20
0.0
 11
12.0
 21
9.0
 12
0.0
 22
0.0
 32
0.0
 14
0.0
 24
0.0
 34
0.0
 15
0.0
 25
0.0
 35
0.0
146
0.0
 13
0.0
 23
0.0
 33
0.0
 16
1.0
 26
0.0
 36
0.0
 17
0.0
 27
1.0
 37
0.0
 76
     0
330
55E5
331
55EB
  0
MATERIAL
  5
5593
102
{ACAD_XDICTIONARY
360
5594
102
}
102
{ACAD_REACTORS
330
558A
102
}
330
558A
100
AcDbMaterial
  1
ByBlock
 72
     0
 43
0.0208333333333333
 43
0.0
 43
0.0
 43
0.0
 43
0.0
 43
0.0208333333333333
 43
0.0
 43
0.0
 43
0.0
 43
0.0
 43
1.0
 43
0.0
 43
0.0
 43
0.0
 43
0.0
 43
1.0
 77
     0
 47
0.0208333333333333
 47
0.0
 47
0.0
 47
0.0
 47
0.0
 47
0.0208333333333333
 47
0.0
 47
0.0
 47
0.0
 47
0.0
 47
1.0
 47
0.0
 47
0.0
 47
0.0
 47
0.0
 47
1.0
171
     0
 49
0.0208333333333333
 49
0.0
 49
0.0
 49
0.0
 49
0.0
 49
0.0208333333333333
 49
0.0
 49
0.0
 49
0.0
 49
0.0
 49
1.0
 49
0.0
 49
0.0
 49
0.0
 49
0.0
 49
1.0
175
     0
142
0.0208333333333333
142
0.0
142
0.0
142
0.0
142
0.0
142
0.0208333333333333
142
0.0
142
0.0
142
0.0
142
0.0
142
1.0
142
0.0
142
0.0
142
0.0
142
0.0
142
1.0
179
     0
144
0.0208333333333333
144
0.0
144
0.0
144
0.0
144
0.0
144
0.0208333333333333
144
0.0
144
0.0
144
0.0
144
0.0
144
1.0
144
0.0
144
0.0
144
0.0
144
0.0
144
1.0
147
0.0208333333333333
147
0.0
147
0.0
147
0.0
147
0.0
147
0.0208333333333333
147
0.0
147
0.0
147
0.0
147
0.0
147
1.0
147
0.0
147
0.0
147
0.0
147
0.0
147
1.0
  0
MATERIAL
  5
558B
102
{ACAD_XDICTIONARY
360
558C
102
}
102
{ACAD_REACTORS
330
558A
102
}
330
558A
100
AcDbMaterial
  1
ByLayer
 72
     0
 43
0.0208333333333333
 43
0.0
 43
0.0
 43
0.0
 43
0.0
 43
0.0208333333333333
 43
0.0
 43
0.0
 43
0.0
 43
0.0
 43
1.0
 43
0.0
 43
0.0
 43
0.0
 43
0.0
 43
1.0
 77
     0
 47
0.0208333333333333
 47
0.0
 47
0.0
 47
0.0
 47
0.0
 47
0.0208333333333333
 47
0.0
 47
0.0
 47
0.0
 47
0.0
 47
1.0
 47
0.0
 47
0.0
 47
0.0
 47
0.0
 47
1.0
171
     0
 49
0.0208333333333333
 49
0.0
 49
0.0
 49
0.0
 49
0.0
 49
0.0208333333333333
 49
0.0
 49
0.0
 49
0.0
 49
0.0
 49
1.0
 49
0.0
 49
0.0
 49
0.0
 49
0.0
 49
1.0
175
     0
142
0.0208333333333333
142
0.0
142
0.0
142
0.0
142
0.0
142
0.0208333333333333
142
0.0
142
0.0
142
0.0
142
0.0
142
1.0
142
0.0
142
0.0
142
0.0
142
0.0
142
1.0
179
     0
144
0.0208333333333333
144
0.0
144
0.0
144
0.0
144
0.0
144
0.0208333333333333
144
0.0
144
0.0
144
0.0
144
0.0
144
1.0
144
0.0
144
0.0
144
0.0
144
0.0
144
1.0
147
0.0208333333333333
147
0.0
147
0.0
147
0.0
147
0.0
147
0.0208333333333333
147
0.0
147
0.0
147
0.0
147
0.0
147
1.0
147
0.0
147
0.0
147
0.0
147
0.0
147
1.0
  0
MATERIAL
  5
559B
102
{ACAD_XDICTIONARY
360
559C
102
}
102
{ACAD_REACTORS
330
558A
102
}
330
558A
100
AcDbMaterial
  1
Global
 72
     0
 43
0.0208333333333333
 43
0.0
 43
0.0
 43
0.0
 43
0.0
 43
0.0208333333333333
 43
0.0
 43
0.0
 43
0.0
 43
0.0
 43
1.0
 43
0.0
 43
0.0
 43
0.0
 43
0.0
 43
1.0
 77
     0
 47
0.0208333333333333
 47
0.0
 47
0.0
 47
0.0
 47
0.0
 47
0.0208333333333333
 47
0.0
 47
0.0
 47
0.0
 47
0.0
 47
1.0
 47
0.0
 47
0.0
 47
0.0
 47
0.0
 47
1.0
171
     0
 49
0.0208333333333333
 49
0.0
 49
0.0
 49
0.0
 49
0.0
 49
0.0208333333333333
 49
0.0
 49
0.0
 49
0.0
 49
0.0
 49
1.0
 49
0.0
 49
0.0
 49
0.0
 49
0.0
 49
1.0
175
     0
142
0.0208333333333333
142
0.0
142
0.0
142
0.0
142
0.0
142
0.0208333333333333
142
0.0
142
0.0
142
0.0
142
0.0
142
1.0
142
0.0
142
0.0
142
0.0
142
0.0
142
1.0
179
     0
144
0.0208333333333333
144
0.0
144
0.0
144
0.0
144
0.0
144
0.0208333333333333
144
0.0
144
0.0
144
0.0
144
0.0
144
1.0
144
0.0
144
0.0
144
0.0
144
0.0
144
1.0
147
0.0208333333333333
147
0.0
147
0.0
147
0.0
147
0.0
147
0.0208333333333333
147
0.0
147
0.0
147
0.0
147
0.0
147
1.0
147
0.0
147
0.0
147
0.0
147
0.0
147
1.0
  0
MLEADERSTYLE
  5
55E0
102
{ACAD_REACTORS
330
55DF
102
}
330
55DF
100
AcDbMLeaderStyle
170
     2
171
     1
172
     0
 90
        2
 40
0.0
 41
0.0
173
     1
 91
-1056964608
340
55D4
 92
       -2
290
     1
 42
0.09
291
     1
 43
0.36
  3
Standard
 44
0.18
300

342
55CF
174
     1
178
     6
175
     1
176
     0
 93
-1056964608
 45
0.18
292
     0
297
     0
 46
0.18
 94
-1056964608
 47
1.0
 49
1.0
140
1.0
293
     1
141
0.0
294
     1
177
     0
142
1.0
295
     0
296
     0
143
0.125
1001
ACAD_MLEADERVER
1070
     2
  0
MLINESTYLE
  5
55D9
102
{ACAD_REACTORS
330
55D8
102
}
330
55D8
100
AcDbMlineStyle
  2
STANDARD
 70
     0
  3

 62
   256
 51
90.0
 52
90.0
 71
     2
 49
0.5
 62
   256
  6
BYLAYER
 49
-0.5
 62
   256
  6
BYLAYER
  0
ACDBPLACEHOLDER
  5
5589
102
{ACAD_REACTORS
330
5588
102
}
330
5588
  0
SCALE
  5
55BD
102
{ACAD_REACTORS
330
55BC
102
}
330
55BC
100
AcDbScale
 70
     0
300
1:1
140
1.0
141
1.0
290
     1
  0
SCALE
  5
55BE
102
{ACAD_REACTORS
330
55BC
102
}
330
55BC
100
AcDbScale
 70
     0
300
1/128" = 1'-0"
140
0.0078125
141
12.0
290
     0
  0
SCALE
  5
55BF
102
{ACAD_REACTORS
330
55BC
102
}
330
55BC
100
AcDbScale
 70
     0
300
1/64" = 1'-0"
140
0.015625
141
12.0
290
     0
  0
SCALE
  5
55C0
102
{ACAD_REACTORS
330
55BC
102
}
330
55BC
100
AcDbScale
 70
     0
300
1/32" = 1'-0"
140
0.03125
141
12.0
290
     0
  0
SCALE
  5
55C1
102
{ACAD_REACTORS
330
55BC
102
}
330
55BC
100
AcDbScale
 70
     0
300
1/16" = 1'-0"
140
0.0625
141
12.0
290
     0
  0
SCALE
  5
55C2
102
{ACAD_REACTORS
330
55BC
102
}
330
55BC
100
AcDbScale
 70
     0
300
3/32" = 1'-0"
140
0.09375
141
12.0
290
     0
  0
SCALE
  5
55C3
102
{ACAD_REACTORS
330
55BC
102
}
330
55BC
100
AcDbScale
 70
     0
300
1/8" = 1'-0"
140
0.125
141
12.0
290
     0
  0
SCALE
  5
55C4
102
{ACAD_REACTORS
330
55BC
102
}
330
55BC
100
AcDbScale
 70
     0
300
3/16" = 1'-0"
140
0.1875
141
12.0
290
     0
  0
SCALE
  5
55C5
102
{ACAD_REACTORS
330
55BC
102
}
330
55BC
100
AcDbScale
 70
     0
300
1/4" = 1'-0"
140
0.25
141
12.0
290
     0
  0
SCALE
  5
55C6
102
{ACAD_REACTORS
330
55BC
102
}
330
55BC
100
AcDbScale
 70
     0
300
3/8" = 1'-0"
140
0.375
141
12.0
290
     0
  0
SCALE
  5
55C7
102
{ACAD_REACTORS
330
55BC
102
}
330
55BC
100
AcDbScale
 70
     0
300
1/2" = 1'-0"
140
0.5
141
12.0
290
     0
  0
SCALE
  5
55C8
102
{ACAD_REACTORS
330
55BC
102
}
330
55BC
100
AcDbScale
 70
     0
300
3/4" = 1'-0"
140
0.75
141
12.0
290
     0
  0
SCALE
  5
55C9
102
{ACAD_REACTORS
330
55BC
102
}
330
55BC
100
AcDbScale
 70
     0
300
1" = 1'-0"
140
1.0
141
12.0
290
     0
  0
SCALE
  5
55CA
102
{ACAD_REACTORS
330
55BC
102
}
330
55BC
100
AcDbScale
 70
     0
300
1-1/2" = 1'-0"
140
1.5
141
12.0
290
     0
  0
SCALE
  5
55CB
102
{ACAD_REACTORS
330
55BC
102
}
330
55BC
100
AcDbScale
 70
     0
300
3" = 1'-0"
140
3.0
141
12.0
290
     0
  0
SCALE
  5
55CC
102
{ACAD_REACTORS
330
55BC
102
}
330
55BC
100
AcDbScale
 70
     0
300
6" = 1'-0"
140
6.0
141
12.0
290
     0
  0
SCALE
  5
55CD
102
{ACAD_REACTORS
330
55BC
102
}
330
55BC
100
AcDbScale
 70
     0
300
1'-0" = 1'-0"
140
12.0
141
12.0
290
     0
  0
TABLESTYLE
  5
55DE
102
{ACAD_XDICTIONARY
360
6782
102
}
102
{ACAD_REACTORS
330
55DD
102
}
330
55DD
100
AcDbTableStyle
  3
Standard
 70
     0
 71
     0
 40
0.06
 41
0.06
280
     0
281
     0
  7
STANDARD
140
0.18
170
     2
 62
     0
 63
     7
283
     0
274
    -2
284
     1
 64
     0
275
    -2
285
     1
 65
     0
276
    -2
286
     1
 66
     0
277
    -2
287
     1
 67
     0
278
    -2
288
     1
 68
     0
279
    -2
289
     1
 69
     0
  7
STANDARD
140
0.25
170
     5
 62
     0
 63
     7
283
     0
274
    -2
284
     1
 64
     0
275
    -2
285
     1
 65
     0
276
    -2
286
     1
 66
     0
277
    -2
287
     1
 67
     0
278
    -2
288
     1
 68
     0
279
    -2
289
     1
 69
     0
  7
STANDARD
140
0.18
170
     5
 62
     0
 63
     7
283
     0
274
    -2
284
     1
 64
     0
275
    -2
285
     1
 65
     0
276
    -2
286
     1
 66
     0
277
    -2
287
     1
 67
     0
278
    -2
288
     1
 68
     0
279
    -2
289
     1
 69
     0
  0
VISUALSTYLE
  5
55A9
102
{ACAD_XDICTIONARY
360
D824
102
}
102
{ACAD_REACTORS
330
55A3
102
}
330
55A3
100
AcDbVisualStyle
  2

 70
     4
 71
     0
 72
     2
 73
     0
 90
        0
 40
-0.6
 41
-30.0
 62
     5
 63
     7
 74
     1
 91
        4
 64
     7
 65
   257
 75
     1
175
     1
 42
1.0
 92
        0
 66
   257
 43
1.0
 76
     1
 77
     6
 78
     2
 67
     7
 79
     5
170
     0
171
     0
290
     0
174
     0
 93
        1
 44
0.0
173
     0
291
     0
 45
0.0
1001
ACAD
1000
AcDbSavedByObjectVersion
1070
     0
  0
VISUALSTYLE
  5
55A8
102
{ACAD_XDICTIONARY
360
D822
102
}
102
{ACAD_REACTORS
330
55A3
102
}
330
55A3
100
AcDbVisualStyle
  2

 70
     7
 71
     1
 72
     0
 73
     1
 90
        0
 40
-0.6
 41
-30.0
 62
     5
 63
     7
 74
     0
 91
        4
 64
     7
 65
   257
 75
     1
175
     1
 42
1.0
 92
        8
 66
     7
 43
1.0
 76
     1
 77
     6
 78
     2
 67
     7
 79
     5
170
     0
171
     0
290
     0
174
     0
 93
        1
 44
0.0
173
     0
291
     1
 45
0.0
1001
ACAD
1000
AcDbSavedByObjectVersion
1070
     0
  0
VISUALSTYLE
  5
55AF
102
{ACAD_XDICTIONARY
360
D830
102
}
102
{ACAD_REACTORS
330
55A3
102
}
330
55A3
100
AcDbVisualStyle
  2

 70
    12
 71
     2
 72
     2
 73
     0
 90
        0
 40
-0.6
 41
-30.0
 62
     5
 63
     7
 74
     1
 91
        4
 64
     7
 65
   257
 75
     1
175
     1
 42
1.0
 92
        8
 66
     7
 43
1.0
 76
     1
 77
     6
 78
     2
 67
     7
 79
     5
170
     0
171
     0
290
     0
174
     0
 93
        1
 44
50.0
173
     0
291
     1
 45
0.0
1001
ACAD
1000
AcDbSavedByObjectVersion
1070
     0
  0
VISUALSTYLE
  5
55B3
102
{ACAD_XDICTIONARY
360
D838
102
}
102
{ACAD_REACTORS
330
55A3
102
}
330
55A3
100
AcDbVisualStyle
  2

 70
    16
 71
     2
 72
     2
 73
     3
 90
        0
 40
-0.6
 41
-30.0
 62
     5
 63
     8
 74
     1
 91
        4
 64
     7
 65
   257
 75
     1
175
     1
 42
1.0
 92
        8
 66
     8
 43
1.0
 76
     1
 77
     6
 78
     2
 67
     7
 79
     5
170
     0
171
     0
290
     0
174
     0
 93
        1
 44
0.0
173
     0
291
     1
 45
0.0
1001
ACAD
1000
AcDbSavedByObjectVersion
1070
     0
  0
VISUALSTYLE
  5
55AC
102
{ACAD_XDICTIONARY
360
D82A
102
}
102
{ACAD_REACTORS
330
55A3
102
}
330
55A3
100
AcDbVisualStyle
  2

 70
     9
 71
     3
 72
     2
 73
     0
 90
        0
 40
-0.6
 41
-30.0
 62
     5
 63
     7
 74
     2
 91
        2
 64
     7
 65
   257
 75
     1
175
     1
 42
179.0
 92
        8
 66
     7
 43
1.0
 76
     1
 77
     6
 78
     2
 67
     7
 79
     3
170
     0
171
     0
290
     0
174
     0
 93
        1
 44
0.0
173
     0
291
     0
 45
0.0
1001
ACAD
1000
AcDbSavedByObjectVersion
1070
     0
  0
VISUALSTYLE
  5
55AE
102
{ACAD_XDICTIONARY
360
D82E
102
}
102
{ACAD_REACTORS
330
55A3
102
}
330
55A3
100
AcDbVisualStyle
  2

 70
    11
 71
     2
 72
     2
 73
     0
 90
        0
 40
-0.6
 41
-30.0
 62
     5
 63
     7
 74
     1
 91
        4
 64
     7
 65
   257
 75
     1
175
     1
 42
1.0
 92
        8
 66
     7
 43
1.0
 76
     1
 77
     6
 78
     2
 67
     7
 79
     5
170
     0
171
     0
290
     0
174
     0
 93
        1
 44
-50.0
173
     0
291
     1
 45
0.0
1001
ACAD
1000
AcDbSavedByObjectVersion
1070
     0
  0
VISUALSTYLE
  5
55BB
102
{ACAD_XDICTIONARY
360
D848
102
}
102
{ACAD_REACTORS
330
55A3
102
}
330
55A3
100
AcDbVisualStyle
  2

 70
    22
 71
     2
 72
     2
 73
     0
 90
        0
 40
-0.6
 41
-30.0
 62
     5
 63
     7
 74
     1
 91
        4
 64
     7
 65
   257
 75
     1
175
     1
 42
1.0
 92
        8
 66
     7
 43
1.0
 76
     1
 77
     6
 78
     2
 67
     7
 79
     5
170
     0
171
     0
290
     0
174
     0
 93
        1
 44
0.0
173
     0
291
     1
 45
0.0
1001
ACAD
1000
AcDbSavedByObjectVersion
1070
     0
  0
VISUALSTYLE
  5
55B2
102
{ACAD_XDICTIONARY
360
D836
102
}
102
{ACAD_REACTORS
330
55A3
102
}
330
55A3
100
AcDbVisualStyle
  2

 70
    15
 71
     2
 72
     2
 73
     0
 90
        0
 40
-0.6
 41
-30.0
 62
     5
 63
     7
 74
     1
 91
        4
 64
     7
 65
   257
 75
     1
175
     1
 42
1.0
 92
        8
 66
     7
 43
1.0
 76
     1
 77
     6
 78
     2
 67
     7
 79
     5
170
     0
171
     0
290
     0
174
     0
 93
        1
 44
0.0
173
     0
291
     1
 45
0.0
1001
ACAD
1000
AcDbSavedByObjectVersion
1070
     0
  0
VISUALSTYLE
  5
55A4
102
{ACAD_XDICTIONARY
360
D81A
102
}
102
{ACAD_REACTORS
330
55A3
102
}
330
55A3
100
AcDbVisualStyle
  2

 70
     0
 71
     2
 72
     1
 73
     1
 90
        2
 40
-0.6
 41
30.0
 62
     5
 63
     7
 74
     0
 91
        0
 64
     7
 65
   257
 75
     1
175
     1
 42
1.0
 92
        8
 66
     7
 43
1.0
 76
     1
 77
     6
 78
     2
 67
     7
 79
     5
170
     0
171
     0
290
     0
174
     0
 93
       13
 44
0.0
173
     0
291
     1
 45
0.0
1001
ACAD
1000
AcDbSavedByObjectVersion
1070
     0
  0
VISUALSTYLE
  5
55A5
102
{ACAD_XDICTIONARY
360
D81C
102
}
102
{ACAD_REACTORS
330
55A3
102
}
330
55A3
100
AcDbVisualStyle
  2

 70
     1
 71
     2
 72
     1
 73
     1
 90
        2
 40
-0.6
 41
30.0
 62
     5
 63
     7
 74
     1
 91
        0
 64
     7
 65
   257
 75
     1
175
     1
 42
1.0
 92
        0
 66
   257
 43
1.0
 76
     1
 77
     6
 78
     2
 67
     7
 79
     5
170
     0
171
     0
290
     0
174
     0
 93
       13
 44
0.0
173
     0
291
     1
 45
0.0
1001
ACAD
1000
AcDbSavedByObjectVersion
1070
     0
  0
VISUALSTYLE
  5
55A6
102
{ACAD_XDICTIONARY
360
D81E
102
}
102
{ACAD_REACTORS
330
55A3
102
}
330
55A3
100
AcDbVisualStyle
  2

 70
     2
 71
     2
 72
     2
 73
     1
 90
        2
 40
-0.6
 41
30.0
 62
     5
 63
     7
 74
     0
 91
        0
 64
     7
 65
   257
 75
     1
175
     1
 42
1.0
 92
        0
 66
     7
 43
1.0
 76
     1
 77
     6
 78
     2
 67
     7
 79
     5
170
     0
171
     0
290
     0
174
     0
 93
       13
 44
0.0
173
     0
291
     1
 45
0.0
1001
ACAD
1000
AcDbSavedByObjectVersion
1070
     0
  0
VISUALSTYLE
  5
55A7
102
{ACAD_XDICTIONARY
360
D820
102
}
102
{ACAD_REACTORS
330
55A3
102
}
330
55A3
100
AcDbVisualStyle
  2

 70
     3
 71
     2
 72
     2
 73
     1
 90
        2
 40
-0.6
 41
30.0
 62
     5
 63
     7
 74
     1
 91
        0
 64
     7
 65
   257
 75
     1
175
     1
 42
1.0
 92
        0
 66
   257
 43
1.0
 76
     1
 77
     6
 78
     2
 67
     7
 79
     5
170
     0
171
     0
290
     0
174
     0
 93
       13
 44
0.0
173
     0
291
     1
 45
0.0
1001
ACAD
1000
AcDbSavedByObjectVersion
1070
     0
  0
VISUALSTYLE
  5
55AB
102
{ACAD_XDICTIONARY
360
D828
102
}
102
{ACAD_REACTORS
330
55A3
102
}
330
55A3
100
AcDbVisualStyle
  2

 70
     6
 71
     1
 72
     2
 73
     2
 90
        0
 40
-0.6
 41
-30.0
 62
     5
 63
     7
 74
     2
 91
        2
 64
     7
 65
   257
 75
     2
175
     1
 42
40.0
 92
        0
 66
   257
 43
1.0
 76
     1
 77
     6
 78
     2
 67
     7
 79
     3
170
     0
171
     0
290
     0
174
     0
 93
        1
 44
0.0
173
     0
291
     0
 45
0.0
1001
ACAD
1000
AcDbSavedByObjectVersion
1070
     0
  0
VISUALSTYLE
  5
55B9
102
{ACAD_XDICTIONARY
360
D844
102
}
102
{ACAD_REACTORS
330
55A3
102
}
330
55A3
100
AcDbVisualStyle
  2

 70
    20
 71
     2
 72
     2
 73
     0
 90
        0
 40
-0.6
 41
-30.0
 62
     5
 63
     7
 74
     1
 91
        4
 64
     7
 65
   257
 75
     1
175
     1
 42
1.0
 92
       10
 66
     7
 43
1.0
 76
     1
 77
     6
 78
     2
 67
     7
 79
     5
170
     0
171
     0
290
     0
174
     0
 93
        1
 44
0.0
173
     0
291
     1
 45
0.0
1001
ACAD
1000
AcDbSavedByObjectVersion
1070
     0
  0
VISUALSTYLE
  5
55B1
102
{ACAD_XDICTIONARY
360
D834
102
}
102
{ACAD_REACTORS
330
55A3
102
}
330
55A3
100
AcDbVisualStyle
  2

 70
    14
 71
     2
 72
     2
 73
     0
 90
        0
 40
-0.6
 41
-30.0
 62
     5
 63
     7
 74
     1
 91
        4
 64
     7
 65
   257
 75
     7
175
     7
 42
1.0
 92
        8
 66
     7
 43
1.0
 76
     1
 77
     6
 78
     2
 67
     7
 79
     5
170
     0
171
     0
290
     0
174
     0
 93
        1
 44
0.0
173
     0
291
     1
 45
0.0
1001
ACAD
1000
AcDbSavedByObjectVersion
1070
     0
  0
VISUALSTYLE
  5
55BA
102
{ACAD_XDICTIONARY
360
D846
102
}
102
{ACAD_REACTORS
330
55A3
102
}
330
55A3
100
AcDbVisualStyle
  2

 70
    21
 71
     2
 72
     2
 73
     0
 90
        0
 40
-0.6
 41
-30.0
 62
     5
 63
     7
 74
     1
 91
        4
 64
     7
 65
   257
 75
     1
175
     1
 42
1.0
 92
        9
 66
     7
 43
1.0
 76
     1
 77
     6
 78
     2
 67
     7
 79
     5
170
     0
171
     0
290
     0
174
     0
 93
        1
 44
0.0
173
     0
291
     1
 45
0.0
1001
ACAD
1000
AcDbSavedByObjectVersion
1070
     0
  0
VISUALSTYLE
  5
55AD
102
{ACAD_XDICTIONARY
360
D82C
102
}
102
{ACAD_REACTORS
330
55A3
102
}
330
55A3
100
AcDbVisualStyle
  2

 70
     8
 71
     2
 72
     2
 73
     0
 90
        2
 40
-0.6
 41
30.0
 62
     5
 63
     7
 74
     0
 91
        0
 64
     7
 65
   257
 75
     1
175
     1
 42
1.0
 92
        8
 66
   257
 43
1.0
 76
     1
 77
     6
 78
     2
 67
     7
 79
     3
170
     0
171
     0
290
     0
174
     0
 93
       13
 44
0.0
173
     0
291
     0
 45
0.0
1001
ACAD
1000
AcDbSavedByObjectVersion
1070
     0
  0
VISUALSTYLE
  5
55B8
102
{ACAD_XDICTIONARY
360
D842
102
}
102
{ACAD_REACTORS
330
55A3
102
}
330
55A3
100
AcDbVisualStyle
  2

 70
    27
 71
     2
 72
     2
 73
     1
 90
        2
 40
-0.6
 41
30.0
 62
     5
 63
     7
 74
     0
 91
        4
 64
     7
 65
   257
 75
     1
175
     1
 42
1.0
 92
        8
 66
   257
 43
1.0
 76
     1
 77
     6
 78
     2
 67
     8
 79
     3
170
     0
171
     0
290
     0
174
     0
 93
        5
 44
0.0
173
     0
291
     0
 45
0.0
1001
ACAD
1000
AcDbSavedByObjectVersion
1070
     0
  0
VISUALSTYLE
  5
55B7
102
{ACAD_XDICTIONARY
360
D840
102
}
102
{ACAD_REACTORS
330
55A3
102
}
330
55A3
100
AcDbVisualStyle
  2

 70
    26
 71
     2
 72
     2
 73
     1
 90
        2
 40
-0.6
 41
30.0
 62
     5
 63
     7
 74
     1
 91
       10
 64
     7
 65
   257
 75
     2
175
     1
 42
1.0
 92
        8
 66
   257
 43
1.0
 76
     1
 77
     6
 78
     2
 67
     7
 79
     3
170
     0
171
     0
290
     0
174
     0
 93
        5
 44
0.0
173
     0
291
     0
 45
0.0
1001
ACAD
1000
AcDbSavedByObjectVersion
1070
     0
  0
VISUALSTYLE
  5
55B4
102
{ACAD_XDICTIONARY
360
D83A
102
}
102
{ACAD_REACTORS
330
55A3
102
}
330
55A3
100
AcDbVisualStyle
  2

 70
    23
 71
     2
 72
     2
 73
     3
 90
        0
 40
-0.6
 41
-30.0
 62
     5
 63
     7
 74
     2
 91
        2
 64
     7
 65
     7
 75
     1
175
     1
 42
40.0
 92
        8
 66
     7
 43
1.0
 76
     1
 77
     6
 78
     2
 67
     7
 79
     3
170
     0
171
     0
290
     0
174
     0
 93
        1
 44
0.0
173
     0
291
     0
 45
0.0
1001
ACAD
1000
AcDbSavedByObjectVersion
1070
     0
  0
VISUALSTYLE
  5
55B5
102
{ACAD_XDICTIONARY
360
D83C
102
}
102
{ACAD_REACTORS
330
55A3
102
}
330
55A3
100
AcDbVisualStyle
  2

 70
    24
 71
     1
 72
     2
 73
     2
 90
        0
 40
-0.6
 41
-30.0
 62
     5
 63
     7
 74
     2
 91
        2
 64
     7
 65
     7
 75
     1
175
     1
 42
40.0
 92
       11
 66
     7
 43
1.0
 76
     1
 77
     6
 78
     2
 67
     7
 79
     6
170
     0
171
     0
290
     0
174
     0
 93
        1
 44
0.0
173
     0
291
     0
 45
0.0
1001
ACAD
1000
AcDbSavedByObjectVersion
1070
     0
  0
VISUALSTYLE
  5
55B0
102
{ACAD_XDICTIONARY
360
D832
102
}
102
{ACAD_REACTORS
330
55A3
102
}
330
55A3
100
AcDbVisualStyle
  2

 70
    13
 71
     2
 72
     2
 73
     0
 90
        0
 40
-0.6
 41
-30.0
 62
     5
 63
     7
 74
     1
 91
        4
 64
     7
 65
   257
 75
     1
175
     1
 42
1.0
 92
       12
 66
     7
 43
1.0
 76
     1
 77
     6
 78
     2
 67
     7
 79
     5
170
     0
171
     0
290
     0
174
     0
 93
        1
 44
0.0
173
     0
291
     1
 45
0.0
1001
ACAD
1000
AcDbSavedByObjectVersion
1070
     0
  0
VISUALSTYLE
  5
55AA
102
{ACAD_XDICTIONARY
360
D826
102
}
102
{ACAD_REACTORS
330
55A3
102
}
330
55A3
100
AcDbVisualStyle
  2

 70
     5
 71
     0
 72
     2
 73
     0
 90
        0
 40
-0.6
 41
-30.0
 62
     5
 63
     7
 74
     1
 91
        4
 64
     7
 65
   257
 75
     1
175
     1
 42
1.0
 92
        0
 66
   257
 43
1.0
 76
     1
 77
     6
 78
     2
 67
     7
 79
     3
170
     0
171
     0
290
     0
174
     0
 93
        1
 44
0.0
173
     0
291
     0
 45
0.0
1001
ACAD
1000
AcDbSavedByObjectVersion
1070
     0
  0
VISUALSTYLE
  5
55B6
102
{ACAD_XDICTIONARY
360
D83E
102
}
102
{ACAD_REACTORS
330
55A3
102
}
330
55A3
100
AcDbVisualStyle
  2

 70
    25
 71
     2
 72
     2
 73
     1
 90
        1
 40
0.5
 41
-30.0
 62
     5
 63
     7
 74
     1
 91
        0
 64
     7
 65
   257
 75
     1
175
     1
 42
1.0
 92
        8
 66
     7
 43
1.0
 76
     1
 77
     6
 78
     2
 67
     7
 79
     3
170
     0
171
     0
290
     0
174
     0
 93
       13
 44
0.0
173
     0
291
     0
 45
0.0
1001
ACAD
1000
AcDbSavedByObjectVersion
1070
     0
  0
DICTIONARYVAR
  5
6780
102
{ACAD_REACTORS
330
677D
102
}
330
677D
100
DictionaryVariables
280
     0
  1
1:1
  0
DICTIONARYVAR
  5
677F
102
{ACAD_REACTORS
330
677D
102
}
330
677D
100
DictionaryVariables
280
     0
  1
STANDARD
  0
DICTIONARYVAR
  5
677E
102
{ACAD_REACTORS
330
677D
102
}
330
677D
100
DictionaryVariables
280
     0
  1
STANDARD
  0
DICTIONARYVAR
  5
8483
102
{ACAD_REACTORS
330
677D
102
}
330
677D
100
DictionaryVariables
280
     0
  1
0
  0
DICTIONARYVAR
  5
8482
102
{ACAD_REACTORS
330
677D
102
}
330
677D
100
DictionaryVariables
280
     0
  1
0
  0
DICTIONARYVAR
  5
8481
102
{ACAD_REACTORS
330
677D
102
}
330
677D
100
DictionaryVariables
280
     0
  1
127
  0
DICTIONARYVAR
  5
D812
102
{ACAD_REACTORS
330
677D
102
}
330
677D
100
DictionaryVariables
280
     0
  1
2
  0
DICTIONARY
  5
56A8
102
{ACAD_REACTORS
330
569F
102
}
330
569F
100
AcDbDictionary
281
     1
  0
DICTIONARY
  5
677B
330
55E8
100
AcDbDictionary
280
     1
281
     1
  3
ADSK_XREC_LAYOUTTHUMBNAIL
360
677C
  0
DICTIONARY
  5
5594
330
5593
100
AcDbDictionary
280
     1
281
     1
  3
ACAD_XREC_ROUNDTRIP
360
848E
  3
BUMPTILE
360
5596
  3
DIFFUSETILE
360
5595
  3
OPACITYTILE
360
5599
  3
REFLECTIONTILE
360
5598
  3
REFRACTIONTILE
360
559A
  3
SPECULARTILE
360
5597
  0
DICTIONARY
  5
558C
330
558B
100
AcDbDictionary
280
     1
281
     1
  3
ACAD_XREC_ROUNDTRIP
360
848D
  3
BUMPTILE
360
558E
  3
DIFFUSETILE
360
558D
  3
OPACITYTILE
360
5591
  3
REFLECTIONTILE
360
5590
  3
REFRACTIONTILE
360
5592
  3
SPECULARTILE
360
558F
  0
DICTIONARY
  5
559C
330
559B
100
AcDbDictionary
280
     1
281
     1
  3
ACAD_XREC_ROUNDTRIP
360
848F
  3
BUMPTILE
360
559E
  3
DIFFUSETILE
360
559D
  3
OPACITYTILE
360
55A1
  3
REFLECTIONTILE
360
55A0
  3
REFRACTIONTILE
360
55A2
  3
SPECULARTILE
360
559F
  0
DICTIONARY
  5
6782
330
55DE
100
AcDbDictionary
280
     1
281
     1
  3
ACAD_ROUNDTRIP_2008_TABLESTYLE_CELLSTYLEMAP
360
D813
  3
ACAD_XREC_ROUNDTRIP
360
D84A
  0
DICTIONARY
  5
D824
330
55A9
100
AcDbDictionary
280
     1
281
     1
  3
ACAD_XREC_ROUNDTRIP
360
D825
  0
DICTIONARY
  5
D822
330
55A8
100
AcDbDictionary
280
     1
281
     1
  3
ACAD_XREC_ROUNDTRIP
360
D823
  0
DICTIONARY
  5
D830
330
55AF
100
AcDbDictionary
280
     1
281
     1
  3
ACAD_XREC_ROUNDTRIP
360
D831
  0
DICTIONARY
  5
D838
330
55B3
100
AcDbDictionary
280
     1
281
     1
  3
ACAD_XREC_ROUNDTRIP
360
D839
  0
DICTIONARY
  5
D82A
330
55AC
100
AcDbDictionary
280
     1
281
     1
  3
ACAD_XREC_ROUNDTRIP
360
D82B
  0
DICTIONARY
  5
D82E
330
55AE
100
AcDbDictionary
280
     1
281
     1
  3
ACAD_XREC_ROUNDTRIP
360
D82F
  0
DICTIONARY
  5
D848
330
55BB
100
AcDbDictionary
280
     1
281
     1
  3
ACAD_XREC_ROUNDTRIP
360
D849
  0
DICTIONARY
  5
D836
330
55B2
100
AcDbDictionary
280
     1
281
     1
  3
ACAD_XREC_ROUNDTRIP
360
D837
  0
DICTIONARY
  5
D81A
330
55A4
100
AcDbDictionary
280
     1
281
     1
  3
ACAD_XREC_ROUNDTRIP
360
D81B
  0
DICTIONARY
  5
D81C
330
55A5
100
AcDbDictionary
280
     1
281
     1
  3
ACAD_XREC_ROUNDTRIP
360
D81D
  0
DICTIONARY
  5
D81E
330
55A6
100
AcDbDictionary
280
     1
281
     1
  3
ACAD_XREC_ROUNDTRIP
360
D81F
  0
DICTIONARY
  5
D820
330
55A7
100
AcDbDictionary
280
     1
281
     1
  3
ACAD_XREC_ROUNDTRIP
360
D821
  0
DICTIONARY
  5
D828
330
55AB
100
AcDbDictionary
280
     1
281
     1
  3
ACAD_XREC_ROUNDTRIP
360
D829
  0
DICTIONARY
  5
D844
330
55B9
100
AcDbDictionary
280
     1
281
     1
  3
ACAD_XREC_ROUNDTRIP
360
D845
  0
DICTIONARY
  5
D834
330
55B1
100
AcDbDictionary
280
     1
281
     1
  3
ACAD_XREC_ROUNDTRIP
360
D835
  0
DICTIONARY
  5
D846
330
55BA
100
AcDbDictionary
280
     1
281
     1
  3
ACAD_XREC_ROUNDTRIP
360
D847
  0
DICTIONARY
  5
D82C
330
55AD
100
AcDbDictionary
280
     1
281
     1
  3
ACAD_XREC_ROUNDTRIP
360
D82D
  0
DICTIONARY
  5
D842
330
55B8
100
AcDbDictionary
280
     1
281
     1
  3
ACAD_XREC_ROUNDTRIP
360
D843
  0
DICTIONARY
  5
D840
330
55B7
100
AcDbDictionary
280
     1
281
     1
  3
ACAD_XREC_ROUNDTRIP
360
D841
  0
DICTIONARY
  5
D83A
330
55B4
100
AcDbDictionary
280
     1
281
     1
  3
ACAD_XREC_ROUNDTRIP
360
D83B
  0
DICTIONARY
  5
D83C
330
55B5
100
AcDbDictionary
280
     1
281
     1
  3
ACAD_XREC_ROUNDTRIP
360
D83D
  0
DICTIONARY
  5
D832
330
55B0
100
AcDbDictionary
280
     1
281
     1
  3
ACAD_XREC_ROUNDTRIP
360
D833
  0
DICTIONARY
  5
D826
330
55AA
100
AcDbDictionary
280
     1
281
     1
  3
ACAD_XREC_ROUNDTRIP
360
D827
  0
DICTIONARY
  5
D83E
330
55B6
100
AcDbDictionary
280
     1
281
     1
  3
ACAD_XREC_ROUNDTRIP
360
D83F
  0
XRECORD
  5
677C
102
{ACAD_REACTORS
330
677B
102
}
330
677B
100
AcDbXrecord
280
     1
310
280000000001000091000000010008000000000000910000000000000000000000010000000000000000000000000000FFFFFF000000000000000000000000000000000000000000000000000000000000000000330000006600000099000000CC000000FF00000000330000333300006633000099330000CC330000FF3300
310
0000660000336600006666000099660000CC660000FF66000000990000339900006699000099990000CC990000FF99000000CC000033CC000066CC000099CC0000CCCC0000FFCC000000FF000033FF000066FF000099FF0000CCFF0000FFFF000000003300330033006600330099003300CC003300FF003300003333003333
310
33006633330099333300CC333300FF33330000663300336633006666330099663300CC663300FF66330000993300339933006699330099993300CC993300FF99330000CC330033CC330066CC330099CC3300CCCC3300FFCC330000FF330033FF330066FF330099FF3300CCFF3300FFFF330000006600330066006600660099
310
006600CC006600FF00660000336600333366006633660099336600CC336600FF33660000666600336666006666660099666600CC666600FF66660000996600339966006699660099996600CC996600FF99660000CC660033CC660066CC660099CC6600CCCC6600FFCC660000FF660033FF660066FF660099FF6600CCFF6600
310
FFFF660000009900330099006600990099009900CC009900FF00990000339900333399006633990099339900CC339900FF33990000669900336699006666990099669900CC669900FF66990000999900339999006699990099999900CC999900FF99990000CC990033CC990066CC990099CC9900CCCC9900FFCC990000FF99
310
0033FF990066FF990099FF9900CCFF9900FFFF99000000CC003300CC006600CC009900CC00CC00CC00FF00CC000033CC003333CC006633CC009933CC00CC33CC00FF33CC000066CC003366CC006666CC009966CC00CC66CC00FF66CC000099CC003399CC006699CC009999CC00CC99CC00FF99CC0000CCCC0033CCCC0066CC
310
CC0099CCCC00CCCCCC00FFCCCC0000FFCC0033FFCC0066FFCC0099FFCC00CCFFCC00FFFFCC000000FF003300FF006600FF009900FF00CC00FF00FF00FF000033FF003333FF006633FF009933FF00CC33FF00FF33FF000066FF003366FF006666FF009966FF00CC66FF00FF66FF000099FF003399FF006699FF009999FF00CC
310
99FF00FF99FF0000CCFF0033CCFF0066CCFF0099CCFF00CCCCFF00FFCCFF0000FFFF0033FFFF0066FFFF0099FFFF00CCFFFF00FFFFFF00000000000D0D0D001A1A1A00282828003535350043434300505050005D5D5D006B6B6B00787878008686860093939300A1A1A100AEAEAE00BBBBBB00C9C9C900D6D6D600E4E4E400
310
F1F1F100FFFFFF000000000000000000000000000000000000000000000000000000000000000000000000000000000000000000000000000000000000000000000000000000000000000000000000000000000000000000000000000000000000000000000000000000000000000000000000000000000000000000000000
310
00000000000000000000000000000000000000000000000000000000000000000000000000000000000000000000000000000000000000000000000000000000000000000000000000000000000000000000000000000000000000000000000000000000000000000000000000000000000000000000000000000000000000
310
00000000000000000000000000000000000000000000000000000000000000000000000000000000000000000000000000000000000000000000000000000000000000000000000000000000000000000000000000000000000000000000000000000000000000000000000000000000000000000000000000000000000000
310
00000000000000000000000000000000000000000000000000000000000000000000000000000000000000000000000000000000000000000000000000000000000000000000000000000000000000000000000000000000000000000000000000000000000000000000000000000000000000000000000000000000000000
310
00000000000000000000000000000000000000000000000000000000000000000000000000000000000000000000000000000000000000000000000000000000000000000000000000000000000000000000000000000000000000000000000000000000000000000000000000000000000000000000000000000000000000
310
00000000000000000000000000000000000000000000000000000000000000000000000000000000000000000000000000000000000000000000000000000000000000000000000000000000000000000000000000000000000000000000000000000000000000000000000000000000000000000000000000000000000000
310
0000000000000000000000000000000000000000000000000000000000000000000000000000000000000000000000000000000000000000000000000000000000000000000000000000000000000000000000000000000000000000000000000000000000F5F5F5F5F5F5F5F5F5F5F5F5F5F5F5F5F5F5F5F5F5F5F5F5F5F5
310
F5F5F5F5F5F5F5F5F5F5F5F5F5F5F5F5F5F5F5F5F5F5F5F5F5F5F5F5F5F5F5F5F5F5F5F5F5F5F5F5F5F5F5F5F5F5F5F5F5F5F5F5F5F5F5F5F5F5F5F5F5F5F5F5F5F5F5F5F5F5F5F5F5F5F5F5F5F5F5F5F5F5F5F5F5F5F5F5F5F5F5F5F5F5F5F5F5F5F5F5F5F5F5F5F5F5F5F5F5F5F5F5F5F5F5F5F5F5F5F5F5F5F5F5F5F5F5
310
F5F5F5F5F5F5F5F5F5F5F5F5F5F5F5F5F5F5F5F5F5F5F5F5F5F5F5F5F5F500000000000000000000000000000000000000000000000000000000000000000000000000000000000000000000000000000000000000000000000000000000000000000000000000F50000000000000000000000000000000000000000000000
310
0000000000000000000000000000000000000000000000000000000000000000000000000000000000000000000000000000000000000000000000000000000000000000000000000000000000000000000000000000000000000000000000000000000000000000000000000000F5F5F5F5F5F5F5F5F5F5F5F5F5F5F5F5F5
310
F5F5F5F5F5F5F5F5F5F5F5F5F5F5F5F5F5F5F5F5F5F5F5F5F5F5F5F5F5F5F5F500000000000000000000000000000000000000000000000000000000000000000000000000000000000000000000000000000000000000000000000000000000000000000000000000F5000000000000000000000000000000000000000000
310
00000000000000000000000000000000000000000000000000000000000000000000000000000000000000000000000000000000000000000000000000000000000000000000000000000000000000000000000000000000000000000000000000000000000000000000000000000000F5000000000000000000000000F500
310
00F500000000000000000000F500000000000000000000000000F50000000000F5F500000000000000000000000000000000000000000000000000000000000000000000000000000000000000000000000000000000000000000000000000000000000000000000000000F50000F5F5F500F5F5F5F5F5F5F5F5F500F5F5F5
310
F500F5F5F5F5F5F5F5F5F5F5F50000000000000000000000000000000000000000000000000000000000000000000000000000000000000000000000000000000000000000000000000000000000000000000000000000000000000000000000000000000000000000000000000000000000F5F5F5F5F5F5F5000000000000
310
F5F5F5F5F5F5F500000000000000F5F5F5F50000F5F5F5F5F5F5F5F5F50000000000F5F500000000000000000000000000000000000000000000000000000000000000000000000000000000000000000000000000000000000000000000000000000000000000000000000000F50000F5F5F5F5F5F5F5F5F5F5F5F5F500F5
310
F5F5F500F5F5F5F5F5F5F5F5F5F5F50000000000000000000000000000000000000000000000000000000000000000000000000000000000000000000000000000000000000000000000000000000000000000000000000000000000000000000000000000000000000000000000000000000000F500000000000000000000
310
0000F500000000000000000000000000F5F5F5F500F5F5F5F5F5F5F5F5F5F50000000000F5F500000000000000000000000000000000000000000000000000000000000000000000000000000000000000000000000000000000000000000000000000000000000000000000000000F5000000F5F5F5F5F5F5F5F5F5F5F500
310
00F5F5F50000F5F5F5F5F5F5F5F5F5F5F50000000000000000000000000000000000000000000000000000000000000000000000000000000000000000000000000000000000000000000000000000000000000000000000000000000000000000000000000000000000000000000000000000000000F5F5F5F5F5F5F5F5F5
310
F5F5F5F5F5F5F5F5F5F5F5F5F5F5F5F5F5F5F5F5F5F500F5F5F5F5F5F5F5F500F50000000000F5F500000000000000000000000000000000000000000000000000000000000000000000000000000000000000000000000000000000000000000000000000000000000000000000000000F5000000F500F5F5F5F5F5F5F500
310
F50000F5F5F5F5F5F5F5F5F5F5F5F5F5F5F5000000000000000000000000000000000000000000000000000000000000000000000000000000000000000000000000000000000000000000000000000000000000000000000000000000000000000000000000000000000000000000000000000000000000F5F5F5F5F5F5F5
310
000000000000F5F5F5F5F5F5F5F5F5F5F5F5F5F5F500F5F5F5F5F5F5F5F5F5000000F5F5F5F5F5F5F5F500000000000000000000000000000000000000000000000000000000000000000000000000000000000000000000000000000000000000000000000000000000000000000000000000F50000F5F5F5F5F5F5F5F5F5
310
F5F5F50000F5F5F5F5F5F5F5F5F5F5F5F5F5F5F5F50000000000000000000000000000000000000000000000000000000000000000000000000000000000000000000000000000000000000000000000000000000000000000000000000000000000000000000000000000000000000000000000000000000000F500000000
310
0000000000000000F500000000000000000000000000F500F5F5F5F5F5F5F5F5F5000000F5F5F5F5F5F5F5F500000000000000000000000000000000000000000000000000000000000000000000000000000000000000000000000000000000000000000000000000000000000000000000000000F50000F5F5F5F5F5F5F5
310
F5F5F5F5F50000F5F5F5F5F5F5F5F5F5F5F5F5F5F5F5F50000000000000000000000000000000000000000000000000000000000000000000000000000000000000000000000000000000000000000000000000000000000000000000000000000000000000000000000000000000000000000000000000000000000F5F5F5
310
F5F5F5F5F5F5F5F5F5F5F5F5F5F5F5F5F5F5F5F5F5F5F5F5F5F5F5F5F5F5F5F5F5F5F5F5F5F5F5F5F5F5F5F5F5F500000000000000000000000000000000000000000000000000000000000000000000000000000000000000000000000000000000000000000000000000000000000000000000000000F500000000000000
310
000000000000000000000000000000000000000000000000000000F5F500000000000000000000000000000000000000000000000000000000000000000000000000000000000000000000000000000000000000000000000000000000000000000000000000000000000000000000000000000000000000000000000000F5
310
00000000000000000000000000000000000000000000000000000000000000000000000000000000000000000000F5F500000000000000000000000000000000000000000000000000000000000000000000000000000000000000000000000000000000000000000000000000000000000000000000000000F5000000F5F5
310
F5F5F5F5F5F5F5F500F5F5F5F5F5F5F5F5F50000F5F50000F5F5F5F5F5F5F5F5F5F5F5F5F5F5F500000000000000000000000000000000000000000000000000000000000000000000000000000000000000000000000000000000000000000000000000000000000000000000000000000000000000000000000000000000
310
00F500000000000000000000000000000000000000000000000000000000000000000000000000000000000000000000F5F500000000000000000000000000000000000000000000000000000000000000000000000000000000000000000000000000000000000000000000000000000000000000000000000000F50000F5
310
F5F5F5F5F5F5F5F5F5F500F5F5F5F5F5F5F5F5F50000F5F5F500F5F5F5F5F5F5F5F5F5F5F5F5F5F5000000000000000000000000000000000000000000000000000000000000000000000000000000000000000000000000000000000000000000000000000000000000000000000000000000000000000000000000000000
310
000000F50000000000000000000000000000000000000000F500000000000000000000000000000000000000000000000000F5F500000000000000000000000000000000000000000000000000000000000000000000000000000000000000000000000000000000000000000000000000000000000000000000000000F500
310
000000F5F5F50000000000F50000000000F5F50000000000000000000000F5F5F500000000F5F500000000000000000000000000000000000000000000000000000000000000000000000000000000000000000000000000000000000000000000000000000000000000000000000000000000000000000000000000000000
310
0000000000F50000000000000000000000000000F5F5F5F5F5F5F5F5F5F5F5F5F5F5F5F5F5F5F500000000000000000000000000F5F500000000000000000000000000000000000000000000000000000000000000000000000000000000000000000000000000000000000000000000000000000000000000000000000000
310
F50000F5F5F5F5F5F5F5F5F5F5F5F5F5F5F5F5F5F5F5F500F5F5F5F500F5F5F500F50000F5F5F5F5F5F500000000000000000000000000000000000000000000000000000000000000000000000000000000000000000000000000000000000000000000000000000000000000000000000000000000000000000000000000
310
00000000000000F50000000000000000000000000000F5F5F5F5F5F5F5F5F5F5F5F5F5F5F5F5F5F5F500000000000000000000000000F5F50000000000000000000000000000000000000000000000000000000000000000000000000000000000000000000000000000000000000000000000000000000000000000000000
310
0000F50000F5F5F5F5F5F5F5F5F5F5F5F5F5F5F5F5F5F5F5F500F5F5F50000F5F5F5F5F500F5F5F5F5F5F5F50000000000000000000000000000000000000000000000000000000000000000000000000000000000000000000000000000000000000000000000000000000000000000000000000000000000000000000000
310
000000000000000000F500000000000000000000000000F5F500000000000000000000000000000000000000000000000000000000000000F5F5000000000000000000000000000000000000000000000000000000000000000000000000000000000000000000000000000000000000000000000000000000000000000000
310
00000000F5000000000000000000F5F5F5000000F5F50000000000000000F5000000000000000000F5F500000000000000000000000000000000000000000000000000000000000000000000000000000000000000000000000000000000000000000000000000000000000000000000000000000000000000000000000000
310
0000000000000000000000F500000000000000000000000000000000000000000000000000000000000000000000000000000000000000000000F5F500000000000000000000000000000000000000000000000000000000000000000000000000000000000000000000000000000000000000000000000000000000000000
310
000000000000F5000000F5F5F5F500F500F5F5F5F5F50000F5F5F50000F5F5F5F5F5F5F5F5F5F500000000000000000000000000000000000000000000000000000000000000000000000000000000000000000000000000000000000000000000000000000000000000000000000000000000000000000000000000000000
310
00000000000000000000000000F500000000000000000000000000000000000000000000000000000000000000000000000000000000000000000000F5F50000000000000000000000000000000000000000000000000000000000000000000000000000000000000000000000000000000000000000000000000000000000
310
0000000000000000F50000F5F5F5F5F500F5F5F5F5F5F5F50000F5F5F500F5F5F5F5F5F5F5F5F5F5F50000000000000000000000000000000000000000000000000000000000000000000000000000000000000000000000000000000000000000000000000000000000000000000000000000000000000000000000000000
310
000000000000000000000000000000F5F5F5F5F5F5F5F5F5F5F5F5F5F5F5F5F5F5F5F5F5F5F5F5F5F5F5F5F5F5F5F5F5F5F5F5F5F5F5F5F5F5F5F5F5F5F5F5F5000000000000000000000000000000000000000000000000000000000000000000000000000000000000000000000000000000000000000000000000000000
310
00000000000000000000F50000F5F5000000000000F500F500F50000F50000000000F50000000000000000000000000000000000000000000000000000000000000000000000000000000000000000000000000000000000000000000000000000000000000000000000000000000000000000000000000000000000000000
310
0000000000000000000000000000000000F500000000000000000000000000000000000000000000000000000000000000000000000000000000000000000000F5F500000000000000000000000000000000000000000000000000000000000000000000000000000000000000000000000000000000000000000000000000
310
000000000000000000000000F5000000F5F5F5F50000F5F5F5F5F5F5F5F5F5F5F5F5F5F5F5F5F5F5F50000F5F5F5F5F5F5F5F5F5F5F5F5000000000000000000000000000000000000000000000000000000000000000000000000000000000000000000000000000000000000000000000000000000000000000000000000
310
00000000000000000000000000000000000000F500000000000000000000000000F5F5F5F5F50000F5F5F5F500F5F500F5F5F500F500000000000000000000000000F5F50000000000000000000000000000000000000000000000000000000000000000000000000000000000000000000000000000000000000000000000
310
0000000000000000000000000000F5000000F5F5F5F5F500F5F5F5F5F5F5F5F5F5F5F5F5F5F5F5F5F5F5F50000F5F5F5F5F5F5F5F5F5F5F5F500000000000000000000000000000000000000000000000000000000000000000000000000000000000000000000000000000000000000000000000000000000000000000000
310
000000000000000000000000000000000000000000F500000000000000000000000000F5F5F5F5F50000F5F5F5F5F500F5F500F5F500F500000000000000000000000000F5F5000000000000000000000000000000000000000000000000000000000000000000000000000000000000000000000000000000000000000000
310
00000000000000000000000000000000F50000F5F5F5F5F50000F5F5F5F5F5F5F5F5F5F5F5F5F5F5F5F5F5F5F5F500F5F5F5F5F5F5F5F5F5F5F5F50000000000000000000000000000000000000000000000000000000000000000000000000000000000000000000000000000000000000000000000000000000000000000
310
0000000000000000000000000000000000000000000000F500000000000000000000000000F5F5F5F5F50000F5F5F5F5F5F5F5F5F5F5F5F500F5000000000000000000000000F5F500000000000000000000000000000000000000000000000000000000000000000000000000000000000000000000000000000000000000
310
000000000000000000000000000000000000F5000000000000000000000000000000000000000000000000000000000000000000000000000000000000000000000000000000000000000000000000000000000000000000000000000000000000000000000000000000000000000000000000000000000000000000000000
310
00000000000000000000000000000000000000000000000000F5F5F5F500000000000000000000000000000000000000000000000000000000000000000000000000000000000000F5F50000000000000000000000000000000000000000000000000000000000000000000000000000000000000000000000000000000000
310
0000000000000000000000000000000000000000F50000F5F5F5F5F5F5F5F5000000000000000000000000000000000000000000000000000000000000000000000000000000000000000000000000000000000000000000000000000000000000000000000000000000000000000000000000000000000000000000000000
310
000000000000000000000000000000000000000000000000000000F5F5F50000000000000000000000000000000000000000000000000000000000000000000000000000000000000000F5F5000000000000000000000000000000000000000000000000000000000000000000000000000000000000000000000000000000
310
00000000000000000000000000000000000000000000F50000F5F5F5F5F5F5F5F500000000000000000000000000000000000000000000000000000000000000000000000000000000000000000000000000000000000000000000000000000000000000000000000000000000000000000000000000000000000000000000
310
0000000000000000000000000000000000000000000000000000000000F5F5F5F5F5F5F5F5F5F5F5F5F5F5F5F5F5F5F5F5F5F5F5F5F5F5F5F5F5F5F5F5F5F5F5F5F5F5F5F5F5F5F5F5F5F5F5F5F500000000000000000000000000000000000000000000000000000000000000000000000000000000000000000000000000
310
000000000000000000000000000000000000000000000000F5000000000000000000000000000000000000000000000000000000000000000000000000000000000000000000000000000000000000000000000000000000000000000000000000000000000000000000000000000000000000000000000000000000000000
310
00000000000000000000000000000000000000000000000000000000000000000000000000000000000000000000000000000000000000000000000000000000000000000000000000000000000000F50000000000000000000000000000000000000000000000000000000000000000000000000000000000000000000000
310
0000000000000000000000000000000000000000000000000000F500000000000000000000000000000000000000000000000000000000000000000000000000000000000000000000000000000000000000000000000000000000000000000000000000000000000000000000000000000000000000000000000000000000
310
000000000000000000000000000000000000000000000000000000000000000000000000000000000000000000000000000000000000000000000000000000000000000000000000000000000000000000F5000000000000000000000000000000000000000000000000000000000000000000000000000000000000000000
310
00000000000000000000000000000000000000000000000000000000F50000000000000000000000000000000000000000000000000000000000000000000000000000000000000000000000000000000000000000000000000000000000000000000000000000000000000000000000000000000000000000000000000000
310
0000000000000000000000000000000000000000000000000000000000000000000000000000000000000000000000000000000000000000000000000000000000000000000000000000000000000000000000F500000000000000000000000000000000000000000000000000000000000000000000000000000000000000
310
000000000000000000000000000000000000000000000000000000000000F5000000000000000000000000000000000000000000000000000000000000000000000000000000000000000000000000000000000000000000000000000000000000000000000000000000000000000000000000000000000000000000000000
310
00000000000000000000000000000000000000000000000000000000000000000000000000000000000000000000000000000000000000000000000000000000000000000000000000000000000000000000000000F50000000000000000000000000000000000000000000000000000000000000000000000000000000000
310
0000000000000000000000000000000000000000000000000000000000000000F500000000000000000000000000000000000000000000000000000000000000000000000000000000000000000000000000000000000000000000000000000000000000000000000000000000000000000000000000000000000000000000
310
000000000000000000000000000000000000000000000000000000000000000000000000000000000000000000000000000000000000000000000000000000000000000000000000000000000000000000000000000000F5000000000000000000000000000000000000000000000000000000000000000000000000000000
310
00000000000000000000000000000000000000000000000000000000000000000000F500000000000000000000000000000000000000000000000000000000000000000000000000000000F5000000000000000000000000000000000000000000000000000000000000000000000000000000000000000000000000000000
310
00000000000000000000000000F5000000000000000000000000000000000000000000000000000000000000000000000000000000000000000000000000000000000000000000000000000000000000000000000000000000F500000000000000000000000000000000000000000000000000000000000000000000000000
310
000000000000000000000000000000000000000000000000000000000000000000000000F500000000000000000000000000000000000000000000000000000000000000000000000000000000F500000000000000000000000000000000000000000000000000000000F5F5F5F5F500000000000000000000000000000000
310
000000000000000000000000000000F5000000000000000000000000000000000000000000000000000000000000000000000000000000000000000000000000000000000000000000000000000000000000000000000000000000F50000000000000000000000000000000000000000000000000000000000000000000000
310
0000000000000000000000000000000000000000000000000000000000000000000000000000F500000000000000000000000000000000000000000000000000000000000000000000000000000000F5F5F5F5F5F5F5F5F5F5F5F5F5F5F5F5F5F5F5F5F5F5F5F5F5F5F5F5F5F5F5F5F5F5F5F5F5F5F5F5F5F5F5F5F5F5F5F5
310
F5F5F5F5F5F5F5F5F5F5F5F5F5F5F5F5F5F5000000000000000000000000000000000000000000000000000000000000000000000000000000000000000000000000000000000000000000000000000000000000000000000000000000F5000000000000000000000000000000000000000000000000000000000000000000
310
00000000000000000000000000000000000000000000000000000000000000000000000000000000F500000000000000000000000000000000000000000000000000000000000000000000000000000000F5000000000000000000000000000000000000000000000000000000000000000000000000000000000000000000
310
00000000000000000000000000000000000000F5000000000000000000000000000000000000000000000000000000000000000000000000000000000000000000000000000000000000000000000000000000000000000000000000000000F500000000000000000000000000000000000000000000000000000000000000
310
000000000000000000000000000000000000000000000000000000000000000000000000000000000000F500000000000000000000000000000000000000000000000000000000000000000000000000000000F500000000000000000000000000000000000000000000000000000000F5F5F5F5F500000000000000000000
310
00000000000000000000000000000000000000F500F5000000000000000000000000000000000000000000000000000000000000000000000000000000000000000000000000000000000000000000000000000000000000000000000000000000F50000000000000000000000000000000000000000000000000000000000
310
0000000000000000000000000000000000000000000000000000000000000000000000000000000000000000F500000000000000000000000000000000000000000000000000000000000000000000000000000000F5F5F5F5F5F5F5F5F5F5F5F5F5F5F5F5F5F5F5F5F5F5F5F5F5F5F5F5F5F5F5F5F5F5F5F5F5F5F5F5F5F5
310
F5F5F5F5F5F5F5F5F5F5F5F5F5F5F5F5F5F5F5F5F5F500F5000000000000000000000000000000000000000000000000000000000000000000000000000000000000000000000000000000000000000000000000000000000000000000000000000000F5000000000000000000000000000000000000000000000000000000
310
00000000000000000000000000000000000000000000000000000000000000000000000000000000000000000000F500000000000000000000000000000000000000000000000000000000000000000000000000000000F5000000000000000000000000000000000000000000000000000000000000000000000000000000
310
0000000000000000000000000000000000000000000000F500F5000000000000000000000000000000000000000000000000000000000000000000000000000000000000000000000000000000000000000000000000000000000000000000000000000000F500000000000000000000000000000000000000000000000000
310
000000000000000000000000000000000000000000000000000000000000000000000000000000000000000000000000F500000000000000000000000000000000000000000000000000000000000000000000000000000000F500000000000000000000000000000000000000000000000000000000000000000000000000
310
00000000000000000000000000000000000000000000000000F500F5000000000000000000000000000000000000000000000000000000000000000000000000000000000000000000000000000000000000000000000000000000000000000000000000000000F50000000000000000000000000000000000000000000000
310
0000000000000000000000000000000000000000000000000000000000000000000000000000000000000000000000000000F500000000000000000000000000000000000000000000000000000000000000000000000000000000F5F5F5F5F5F5F5F5F5F5F5F5F5F5F5F5F5F5F5F5F5F5F5F5F5F5F5F5F5F5F5F5F5F5F5F5
310
F5F5F5F5F5F5F5F5F5F5F5F5F5F5F5F5F5F5F5F5F5F5F5F5F5F5F5F500F5000000000000000000000000000000000000000000000000000000000000000000000000F5F5F5F5F5F5F5F5F5F5F5F5F5F5F5F5F5F5F5F5F5F5F5F5F5F5F5F5F5F5F50000000000000000F5000000000000000000000000000000000000000000
310
00000000000000000000000000000000000000000000000000000000000000000000000000000000000000000000000000000000F500000000000000000000000000000000000000000000000000000000000000000000000000000000F500000000000000000000000000000000000000000000000000000000000000F500
310
0000000000000000000000000000000000000000000000000000000000F5F5F5000000000000000000000000000000000000000000000000000000000000000000000000F5F5000000000000000000F5F500000000F50000F50000000000000000F5000000000000000000F500000000000000000000000000000000000000
310
000000000000000000000000000000000000000000000000000000000000000000000000000000000000000000000000000000000000F500000000000000000000000000000000000000000000000000000000000000000000000000000000F500000000000000000000000000000000000000000000000000000000000000
310
F5000000000000000000000000000000000000000000000000000000000000F5F5F5000000000000000000000000000000000000000000000000000000000000000000000000F5F5F5F5F5F5F5F5F5F5F5F5F5F5F5F5F5F50000F5F5F5F5F5F5F5F500F5000000000000000000F50000000000000000000000000000000000
310
0000000000000000000000000000000000000000000000000000000000000000000000000000000000000000000000000000000000000000F500000000000000000000000000000000000000000000000000000000000000000000000000000000F50000000000000000000000000000000000000000000000000000000000
310
0000F5000000000000000000000000000000000000000000000000000000000000F5F5F5000000000000000000000000000000000000000000000000000000000000000000000000F5F500F50000000000000000000000F500F5F5F5F5F500000000F50000F5000000000000000000F5000000000000000000000000000000
310
00000000000000000000000000000000000000000000000000000000000000000000000000000000000000000000000000000000000000000000F500000000000000000000000000000000000000000000000000000000000000000000000000000000F5000000000000000000000000000000000000000000000000000000
310
00000000F5000000000000000000000000000000000000000000000000000000000000F5F5F5000000000000000000000000000000000000000000000000000000000000000000000000F5F5F5F50000000000000000000000F500F50000F5F500000000F50000F5000000000000000000F500000000000000000000000000
310
000000000000000000000000000000000000000000000000000000000000000000000000000000000000000000000000000000000000000000000000F500000000000000000000000000000000000000000000000000000000000000000000000000000000F500000000000000000000000000000000000000000000000000
310
000000000000F5000000000000000000000000000000000000000000000000000000000000F5F5F5000000000000000000000000000000000000000000000000000000000000000000000000F5F5F5F50000000000000000000000F500F50000F5F500000000F50000F5000000000000000000F50000000000000000000000
310
0000000000000000000000000000000000000000000000000000000000000000000000000000000000000000000000000000000000000000000000000000F500000000000000000000000000000000000000000000000000000000000000000000000000000000F50000000000000000000000000000000000000000000000
310
0000000000000000F5000000000000000000000000000000000000000000000000000000000000F500F5000000000000000000000000000000000000000000000000000000000000000000000000F5F5F5F50000000000000000000000F500F5F500F5F500000000F50000F5000000000000000000F5000000000000000000
310
00000000000000000000000000000000000000000000000000000000000000000000000000000000000000000000000000000000000000000000000000000000F500000000000000000000000000000000000000000000000000000000000000000000000000000000F5000000000000000000000000000000000000000000
310
00000000000000000000F5000000000000000000000000000000000000000000000000000000000000F500F5000000000000000000000000000000000000000000000000000000000000000000000000F5F5F5F50000000000000000000000F500F50000F5F500000000F50000F5000000000000000000F500000000000000
310
000000000000000000000000000000000000000000000000000000000000000000000000000000000000000000000000000000000000000000000000000000000000F500000000000000000000000000000000000000000000000000000000000000000000000000000000F500000000000000000000000000000000000000
310
000000000000000000000000F5000000000000000000000000000000000000000000000000000000000000F500F5000000000000000000000000000000000000000000000000000000000000000000000000F5F500F50000000000000000000000F500F50000F5F500000000F50000F5000000000000000000F50000000000
310
0000000000000000000000000000000000000000000000000000000000000000000000000000000000000000000000000000000000000000000000000000000000000000F500000000000000000000000000000000000000000000000000000000000000000000000000000000F500F5F5F5F5F5F5F5F5F5F5F5F5F5F5F5F5
310
F5F5F5F5F5F5F5F5F5F5F5F5F5F5F5F5F5F5F5F5F5F5F5F5F5F5F5F5F5F5F5F5F5F5F5F5F5F5F5F5F5F5F5F500F500F5000000000000000000000000000000000000000000000000000000F5F5F5F5F5F5F5F5F5F5F500F50000000000000000000000F500F50000F5F5000000F5F500F5F5000000000000000000F5000000
310
00000000000000000000000000000000000000000000000000000000000000000000000000000000000000000000000000000000000000000000000000000000000000000000F500000000000000000000000000000000000000000000000000000000000000000000000000000000F500F500000000000000000000000000
310
00000000000000000000000000000000F500000000000000000000000000000000000000000000000000000000F500F500F500000000000000000000000000000000000000000000000000000000F50000000000F500F5F500F50000000000000000000000F500F50000F5F5000000F5F500F5F5000000000000000000F500
310
000000000000000000000000000000000000000000000000000000000000000000000000000000000000000000000000000000000000000000000000000000000000000000000000F500000000000000000000000000000000000000000000000000000000000000000000000000000000F500F500F5F5F5F5F5F5F5F5F5F5
310
0000000000F5F5F5F5F5F5F5F5F5F5F50000F500F5F5F5F5F5F5F5F5F5F5F50000000000F5F5F5F5F5F5F5F5F5F500F500F5F5F5000000000000000000000000000000000000000000000000F50000F5F50000000000F500F5F500F5F5F5F5F5F5F5F5F5F5F5F5F500F5F500F5F5000000F5F500F5F5000000000000000000
310
F500000000000000000000000000000000000000000000000000000000000000000000000000000000000000000000000000000000000000000000000000000000000000000000000000F500000000000000000000000000000000000000000000000000000000000000000000000000000000F500F500F5F5000000000000
310
F5F50000000000F5F500000000000000F5F50000F500F5F500000000000000F5F50000000000F5F5000000000000F5F500F500F5000000000000000000000000000000000000000000000000F5F5F5F5F5F5F50000000000F500F5F5000000F50000000000000000F5F500F5F5F5F5F500000000F500000000000000F50000
310
0000F500000000000000000000000000000000000000000000000000000000000000000000000000000000000000000000000000000000000000000000000000000000000000000000000000F500000000000000000000000000000000000000000000000000000000000000000000000000000000F500F500F5F500000000
310
0000F5F50000000000F5F500000000000000F5F50000F500F5F500000000000000F5F50000000000F5F5000000000000F5F500F500F500000000000000000000000000000000000000000000F5F500000000F5F5F50000000000F500F5F5000000F50000000000000000F5F500F50000F5F500000000F50000F50000F5F5F5
310
F5F50000F500000000000000000000000000000000000000000000000000000000000000000000000000000000000000000000000000000000000000000000000000000000000000000000000000F500000000000000000000000000000000000000000000000000000000000000000000000000000000F500F500F5F5F5F5
310
F5F5F5F5F5F50000000000F5F5F5F5F5F5F5F5F5F5F50000F500F5F5F5F5F5F5F5F5F5F5F50000000000F5F5F5F5F5F5F5F5F5F500F500F50000000000000000000000000000000000000000000000F5F500F5F5F500F50000000000F500F5F5F50000F50000000000000000F5F500F5F500F5F500000000F50000F5F5F500
310
000000F50000F500000000000000000000000000000000000000000000000000000000000000000000000000000000000000000000000000000000000000000000000000000000000000000000000000F500000000000000000000000000000000000000000000000000000000000000000000000000000000F500F500F500
310
00000000000000F50000000000F5F50000000000000000F50000F500F5F50000000000000000F50000000000F50000000000000000F500F500F500000000000000000000000000000000000000000000000000F5F5000000F50000000000F500F5F5F50000F50000000000000000F5F500F5F500F5F500000000F50000F500
310
F5F500F5F5F50000F500000000000000000000000000000000000000000000000000000000000000000000000000000000000000000000000000000000000000000000000000000000000000000000000000F500000000000000000000000000000000000000000000000000000000000000000000000000000000F500F500
310
F5F5F5F5F5F5F5F5F5F50000000000F5F5F5F5F5F5F5F5F5F5F50000F500F5F5F5F5F5F5F5F5F5F5F50000000000F5F5F5F5F5F5F5F5F5F500F500F5000000000000000000000000000000000000000000000000000000000000F50000000000F500F5F5F50000F50000000000000000F5F500F50000F5F500000000F50000
310
F5000000F5F500000000F500000000000000000000000000000000000000000000000000000000000000000000000000000000000000000000000000000000000000000000000000000000000000000000000000F500000000000000000000000000000000000000000000000000000000000000000000000000000000F5F5
310
F5F5F5F5F5F5F5F5F5F5F5F5F5F5F5F5F5F5F5F5F5F5F5F5F5F5F5F5F5F5F5F5F5F5F5F5F5F5F5F5F5F5F5F5F5F5F5F5F5F5F5F5F5F5F5F5F5F5F5F5F5F50000000000000000000000000000000000000000000000000000000000F5F5F5F5F5F5F5F5F5F5F5F50000F50000000000000000F50000F50000F5F500000000F5
310
0000F5000000000000000000F500000000000000000000000000000000000000000000000000000000000000000000000000000000000000000000000000000000000000000000000000000000000000000000000000F500000000000000000000000000000000000000000000000000000000000000000000000000000000
310
F500F50000000000000000000000000000000000000000000000000000000000F50000000000000000000000000000000000000000000000000000000000F5F50000000000000000000000000000000000000000000000000000000000000000000000000000F5F5000000F5F5F5F5F5F5F5F5F5F50000F50000F5F5000000
310
00F50000F5000000000000000000F500000000000000000000000000000000000000000000000000000000000000000000000000000000000000000000000000000000000000000000000000000000000000000000000000F50000000000000000000000000000000000000000000000000000000000000000000000000000
310
0000F5F5F5F5F5F5F5F5F5F5F5F5F5F5F5F5F5F5F5F5F5F5F5F5F5F5F5F5F5F5F5F5F5F5F5F5F5F5F5F5F5F5F5F5F5F5F5F5F5F5F5F5F5F5F5F5F5F5F5F5F5F5F5F50000000000000000000000000000000000000000000000000000000000000000000000000000F5F5F5F5F5F5F5F5F5F5F5F5F5F5F5F5F5F5F5F5F500F5
310
F5F5F5F5F500F5000000000000000000F500000000000000000000000000000000000000000000000000000000000000000000000000000000000000000000000000000000000000000000000000000000000000000000000000F5000000000000000000000000000000000000000000000000000000000000000000000000
310
00000000F5F5F5F5F5F5F5F5F5F5F5F5F5F5F5F5F5F5F5F5F5F5F5F5F5F5F5F5F5F5F5F5F5F5F5F5F5F5F5F5F5F5F5F5F5F5F5F5F5F5F5F5F5F5F5F5F5F5F5F5F5F5F5F50000000000000000000000000000000000000000000000000000000000000000000000000000F5F5F5F5F5F5F5F5F5F5F5F5F5F5F5F5F5F5F5F5F5
310
F5F5F5F5F5F5F5F5F5F50000000000000000F500000000000000000000000000000000000000000000000000000000000000000000000000000000000000000000000000000000000000000000000000000000000000000000000000F500000000000000000000000000000000000000000000000000000000000000000000
310
00000000000000000000000000000000000000000000000000000000000000000000000000000000000000000000000000000000000000000000000000000000000000000000000000000000000000000000000000000000000000000000000000000000000000000000000000000000000000000000000000000000000000
310
0000000000000000000000000000000000000000F500000000000000000000000000000000000000000000000000000000000000000000000000000000000000000000000000000000000000000000000000000000000000000000000000F50000000000000000000000000000000000000000000000000000000000000000
310
00000000000000000000000000000000000000000000000000000000000000000000000000000000000000000000000000000000000000000000000000000000000000000000000000000000000000000000000000000000000000000000000000000000000000000000000000000000000000000000000000000000000000
310
00000000000000000000000000000000000000000000F500000000000000000000000000000000000000000000000000000000000000000000000000000000000000000000000000000000000000000000000000000000000000000000000000F5000000000000000000000000000000000000000000000000000000000000
310
0000000000000000000000000000000000000000000000000000000000000000000000000000000000000000000000000000000000000000000000000000000000000000000000000000000000000000000000000000000000000000000000000000000000000000000000F500000000000000000000000000000000000000
310
000000000000000000000000000000000000000000000000F500000000000000000000000000000000000000000000000000000000000000000000000000000000000000000000000000000000000000000000000000000000000000000000000000F500000000000000000000000000000000000000000000000000000000
310
00000000000000000000000000000000000000000000000000000000000000000000000000000000000000000000000000000000000000000000000000000000000000000000000000000000000000000000000000000000000000000000000000000000000000000000000000000000000000000000000000000000000000
310
0000000000000000000000000000000000000000000000000000F500000000000000000000000000000000000000000000000000000000000000000000000000000000000000000000000000000000000000000000000000000000000000000000000000F50000000000000000000000000000000000000000000000000000
310
00000000000000000000000000000000000000000000000000000000000000000000000000000000000000000000000000000000000000000000000000000000000000000000000000000000000000000000000000000000000000000000000000000000000000000000000000000000000000000000000000000000000000
310
00000000000000000000000000000000000000000000000000000000F500000000000000000000000000000000000000000000000000000000000000000000000000000000000000000000000000000000000000000000000000000000000000000000000000F5000000000000000000000000000000000000000000000000
310
00000000000000000000000000000000000000000000000000000000000000000000000000000000000000000000000000000000000000000000000000000000000000000000000000000000000000000000000000000000000000000000000000000000000000000000000000000000000000000000000000000000000000
310
000000000000000000000000000000000000000000000000000000000000F500000000000000000000000000000000000000000000000000000000000000000000000000000000000000000000000000000000000000000000000000000000000000000000000000F500000000000000000000000000000000000000000000
310
00000000000000000000000000000000000000000000000000000000000000000000000000000000000000000000000000000000000000000000000000000000000000000000000000000000000000000000000000000000000000000000000000000000000000000000000000000000000000000000000000000000000000
310
0000000000000000000000000000000000000000000000000000000000000000F500000000000000000000000000000000000000000000000000000000000000000000000000000000000000000000000000000000000000000000000000000000000000000000000000F50000000000000000000000000000000000000000
310
00000000000000000000000000000000000000000000000000000000000000000000000000000000000000000000000000000000000000000000000000000000000000000000000000000000000000000000000000000000000000000000000000000000000000000000000000000000000000000000000000000000000000
310
00000000000000000000000000000000000000000000000000000000000000000000F500000000000000000000000000000000000000000000000000000000000000000000000000000000000000000000000000000000000000000000000000000000000000000000000000F5000000000000000000000000000000000000
310
00000000000000000000000000000000000000000000000000000000000000000000000000000000000000000000000000000000000000000000000000000000000000000000000000000000000000000000000000000000000000000000000000000000000000000000000000000000000000000000000000000000000000
310
000000000000000000000000000000000000000000000000000000000000000000000000F500000000000000000000000000000000000000000000000000000000000000000000000000000000000000000000000000000000000000000000000000000000000000000000000000F500000000000000000000000000000000
310
00000000000000000000000000000000000000000000000000000000000000000000000000000000000000000000000000000000000000000000000000000000000000000000000000000000000000000000000000000000000000000000000000000000000000000000000000000000000000000000000000000000000000
310
0000000000000000000000000000000000000000000000000000000000000000000000000000F500000000000000000000000000000000000000000000000000000000000000000000000000000000000000000000000000000000000000000000000000000000000000000000000000F50000000000000000000000000000
310
00000000000000000000000000000000000000000000000000000000000000000000000000000000000000000000000000000000000000000000000000000000000000000000000000000000000000000000000000000000000000000000000000000000000000000000000000000000000000000000000000000000000000
310
00000000000000000000000000000000000000000000000000000000000000000000000000000000F500000000000000000000000000000000000000000000000000000000000000000000000000000000000000000000000000000000000000000000000000000000000000000000000000F5000000000000000000000000
310
00000000000000000000000000000000000000000000000000000000000000000000000000000000000000000000000000000000000000000000000000000000000000000000000000000000000000000000000000000000000000000000000000000000000000000000000000000000000000000000000000000000000000
310
000000000000000000000000000000000000000000000000000000000000000000000000000000000000F500000000000000000000000000000000000000000000000000000000000000000000000000000000000000000000000000000000000000000000000000000000000000000000000000F500000000000000000000
310
00000000000000000000000000000000000000000000000000000000000000000000000000000000000000000000000000000000000000000000000000000000000000000000000000000000000000000000000000000000000000000000000000000000000000000000000000000000000000000000000000000000000000
310
0000000000000000000000000000000000000000000000000000000000000000000000000000000000000000F500000000000000000000000000000000000000000000000000000000000000000000000000000000000000000000000000000000000000000000000000000000000000000000000000F50000000000000000
310
00000000000000000000000000000000000000000000000000000000000000000000000000000000000000000000000000000000000000000000000000000000000000000000000000000000000000000000000000000000000000000000000000000000000000000000000000000000000000000000000000000000000000
310
00000000000000000000000000000000000000000000000000000000000000000000000000000000000000000000F500000000000000000000000000000000000000000000000000000000000000000000000000000000000000000000000000000000000000000000000000000000000000000000000000F5000000000000
310
00000000000000000000000000000000000000000000000000000000000000000000000000000000000000000000000000000000000000000000000000000000000000000000000000000000000000000000000000000000000000000000000000000000000000000000000000000000000000000000000000000000000000
310
000000000000000000000000000000000000000000000000000000000000000000000000000000000000000000000000F500000000000000000000000000000000000000000000000000000000000000000000000000000000000000000000000000000000000000000000000000000000000000000000000000F500000000
310
00000000000000000000000000000000000000000000000000000000000000000000000000000000000000000000000000000000000000000000000000000000000000000000000000000000000000000000000000000000000000000000000000000000000000000000000000000000000000000000000000000000000000
310
0000000000000000000000000000000000000000000000000000000000000000000000000000000000000000000000000000F500000000000000000000000000000000000000000000000000000000000000000000000000000000000000000000000000000000000000000000000000000000000000000000000000F50000
310
00000000000000000000000000000000000000000000000000000000000000000000000000000000000000000000000000000000000000000000000000000000000000000000000000000000000000000000000000000000000000000000000000000000000000000000000000000000000000000000000000000000000000
310
00000000000000000000000000000000000000000000000000000000000000000000000000000000000000000000000000000000F500000000000000000000000000000000000000000000000000000000000000000000000000000000000000000000000000000000000000000000000000000000000000000000000000F5
310
000000000000000000000000000000000000000000000000000000000000000000000000000000000000000000000000000000000000000000000000000000000000000000000000000000000000000000000000000000F5000000000000000000000000000000000000000000000000000000000000000000000000000000
310
000000000000000000000000000000000000000000000000000000000000000000000000000000000000000000000000000000000000F5000000000000000000000000000000000000000000000000000000000000000000000000000000000000000000000000000000000000000000000000000000000000000000000000
310
00F5000000000000000000000000000000000000000000000000000000000000000000000000000000000000000000000000000000000000000000000000000000000000000000000000000000000000000000000000000000F5F5000000000000000000000000000000000000000000000000000000000000000000000000
310
0000000000000000000000000000000000000000000000000000000000000000000000000000000000000000000000000000000000000000F500000000000000000000000000000000000000000000000000000000000000000000000000000000000000000000000000000000000000000000000000000000000000000000
310
000000F50000000000000000000000000000000000000000000000000000000000000000000000000000000000000000000000000000000000000000000000000000000000000000000000000000000000000000000000000000F500F500000000000000000000000000000000000000000000000000000000000000000000
310
00000000000000000000000000000000000000000000000000000000000000000000000000000000000000000000000000000000000000000000F50000000000000000000000000000000000000000000000000000000000000000000000000000000000000000000000000000000000000000000000000000000000000000
310
0000000000F50000000000000000000000000000000000000000000000000000000000000000000000000000000000000000000000000000000000000000000000000000000000000000000000000000000000000000000000000000F50000F500000000000000000000000000000000000000000000000000000000000000
310
000000000000000000000000000000000000000000000000000000000000000000000000000000000000000000000000000000000000000000000000F5000000000000000000000000000000000000000000000000000000000000000000000000000000000000000000000000000000000000000000000000000000000000
310
00000000000000F500000000000000000000000000000000000000000000000000000000000000000000000000000000000000000000000000000000000000000000000000000000000000000000000000000000000000000000000000F5F500F5F50000000000000000000000000000000000000000000000000000000000
310
0000000000000000000000000000000000000000000000000000000000000000000000000000000000000000000000000000000000000000000000000000F500000000000000000000000000000000000000000000000000000000000000000000000000000000000000000000000000000000000000000000000000000000
310
000000000000000000F50000000000000000000000000000000000000000000000000000000000000000000000000000000000000000000000000000000000000000000000000000000000000000000000000000000000000000000000000000F500F500000000000000000000000000000000000000000000000000000000
310
00000000000000000000000000000000000000000000000000000000000000000000000000000000000000000000000000000000000000000000000000000000F50000000000000000000000000000000000000000000000000000000000000000000000000000000000000000000000000000000000000000000000000000
310
0000000000000000000000F5000000000000000000000000000000000000000000000000000000000000000000000000000000000000F500000000000000000000000000000000000000000000000000000000F5F5F5F5F500000000000000000000F5F5F5000000000000000000000000F500000000000000000000000000
310
000000000000000000000000000000000000000000000000000000000000000000000000000000000000000000000000000000000000000000000000000000000000F5000000000000000000000000000000000000000000000000000000000000000000000000000000000000000000000000000000000000000000000000
310
00000000000000000000000000F5000000000000000000000000000000000000000000000000000000000000000000000000000000000000F5F5F5F5F5F5F5F5F5F5F5F5F5F5F5F5F5F5F5F5F5F5F5F5F5F5F5F5F5F5F5F5F5F5F5F5F5F5F5F5F5F5F5F5F5F5F5F5F5F5F5F5F5F5F5F5F5F5F5F50000000000000000000000
310
0000000000000000000000000000000000000000000000000000000000000000000000000000000000000000000000000000000000000000000000000000000000000000F500000000000000000000000000000000000000000000000000000000000000000000000000000000000000000000000000000000000000000000
310
000000000000000000000000000000F5000000000000000000000000000000000000000000000000000000000000000000000000000000000000F500000000000000000000000000000000000000000000000000000000F5F5F5F5F500000000000000000000000000000000000000000000000000F5000000000000000000
310
00000000000000000000000000000000000000000000000000000000000000000000000000000000000000000000000000000000000000000000000000000000000000000000F50000000000000000000000000000000000000000000000000000000000000000000000000000000000000000000000000000000000000000
310
0000000000000000000000000000000000F5000000000000000000000000000000000000000000000000000000000000000000000000000000000000F500000000000000000000000000000000000000000000000000000000000000000000000000000000000000000000000000000000000000000000F500000000000000
310
000000000000000000000000000000000000000000000000000000000000000000000000000000000000000000000000000000000000000000000000000000000000000000000000F5000000000000000000000000000000000000000000000000000000000000000000000000000000000000000000000000000000000000
310
00000000000000000000000000000000000000F500000000000000000000000000000000000000000000000000000000000000000000000000000000F5F5F500000000000000000000000000000000000000000000000000000000000000000000000000000000000000000000000000000000000000000000F5F5F5000000
310
0000000000000000000000000000000000000000000000000000000000000000000000000000000000000000000000000000000000000000000000000000000000000000000000000000F500000000000000000000000000000000000000000000000000000000000000000000000000000000000000000000000000000000
310
000000000000000000000000000000000000000000F500000000000000F5F5F5F5F5F5F5F5F5F5F5F5F5F5F5F5F5F5F5F5F5F5F5F5F5F5F5F5F5F5F5F5F5F5F5F5F5F5F5F5F5F5F5F5F5F5F5F5F5F5F5F5F5F5F5F5F5F5F5F5F5F5F5F5F5F5F5F5F5F5F5F5F5F5F5F5F5F5F5F5F5F5F5F5F5F5F5F5F5F5F5F5F5F5F5F5F500
310
00000000000000000000000000000000000000000000000000000000000000000000000000000000000000000000000000000000000000000000000000000000000000000000000000000000F50000000000000000000000000000000000000000000000000000000000000000000000000000000000000000000000000000
310
0000000000000000000000000000000000000000000000F5000000000000000000F500000000000000000000000000000000F5F5F5F5F5F5F5F5F5F5F5F5F5F5F5F5F5F5F5F5F5F5F5F5F5F5F5F5F5F5F5F5F5F5F5F5F5F5F5F5F5F5F5F5F5F5F5F5F5F5F5F5F5F5F5F5F5F5F5F5F5F5F5F5F5F5F5F5F5F5F5F5F5F5F5F5F5
310
F5F5F5F5F5F5F5F5F5F5F5F5F5F5F5000000000000000000000000000000000000000000000000000000000000000000000000000000000000000000000000000000000000000000000000000000F5000000000000000000000000000000000000000000000000000000000000000000000000000000000000000000000000
310
00000000000000000000000000000000000000000000000000F5000000000000000000F50000000000F5F5000000000000000000F500000000000000000000000000F5000000000000000000000000000000000000000000000000000000000000000000000000000000000000000000000000000000000000000000000000
310
0000F500000000000000000000000000F5000000000000000000000000000000000000000000000000000000000000000000000000000000000000000000000000000000000000000000000000000000F500000000000000000000000000000000000000000000000000000000000000000000000000000000000000000000
310
000000000000000000000000000000000000000000000000000000F5000000000000000000000000000000F5F5000000000000F5F500F500000000000000000000000000F500000000000000000000000000000000000000000000000000000000000000000000000000000000000000000000000000000000000000000000
310
00000000F500000000000000000000000000F5F5F5F5000000000000000000000000000000000000000000000000000000000000000000000000000000000000000000000000000000000000000000000000F50000000000000000000000000000000000000000000000000000000000000000000000000000000000000000
310
0000000000000000000000000000000000000000000000000000000000F5000000000000000000000000F5F5F5F5F5000000000000F5F500F500000000000000000000000000F50000000000000000000000000000000000000000000000000000000000000000000000000000000000000000000000000000000000000000
310
000000000000F500000000000000000000000000F5F5F5F5000000000000000000000000000000000000000000000000000000000000000000000000000000000000000000000000000000000000000000000000F5000000000000000000000000000000000000000000000000000000000000000000000000000000000000
310
00000000000000000000000000000000000000000000000000000000000000F5000000000000000000000000F5F5F5F5F5000000000000F5F500F500000000000000000000000000F5000000000000000000000000000000000000000000000000000000000000000000000000000000000000000000000000000000000000
310
0000000000000000F5F5F50000000000000000000000F5F5F5F5000000000000000000000000000000000000000000000000000000000000000000000000000000000000000000000000000000000000000000000000F500000000000000000000000000000000000000000000000000000000000000000000000000000000
310
000000000000000000000000000000000000000000000000000000000000000000F500000000000000000000F5F5F5F5F5F5F5000000000000F5F500F500000000000000000000000000F500000000000000000000000000000000000000000000000000000000000000000000000000000000000000000000000000000000
310
00000000000000000000F5F5F50000000000000000000000F5F5F5F5000000000000000000000000000000000000000000000000000000000000000000000000000000000000000000000000000000000000000000000000F50000000000000000000000000000000000000000000000000000000000000000000000000000
310
0000000000000000000000000000000000000000000000000000000000000000000000F500000000000000000000F5F5F5F5F5F5F5000000000000F5F500F500000000000000000000000000F50000000000000000000000000000000000000000000000000000000000000000000000000000000000000000000000000000
310
000000000000000000000000F5F5F50000000000000000000000F5F5F5F5000000000000000000000000000000000000000000000000000000000000000000000000000000000000000000000000000000000000000000000000F5000000000000000000000000000000000000000000000000000000000000000000000000
310
00000000000000000000000000000000000000000000000000000000000000000000000000F500000000000000000000F5F5F5F5F5F5F5000000000000F5F500F500000000000000000000000000F5000000000000000000000000000000000000000000000000000000000000000000000000000000000000000000000000
310
0000000000000000000000000000F5F5F50000000000000000000000F5F5F5F5000000000000000000000000000000000000000000000000000000000000000000000000000000000000000000000000000000000000000000000000F500000000000000000000000000000000000000000000000000000000000000000000
310
000000000000000000000000000000000000000000000000000000000000000000000000000000F500000000000000000000F5F5F5F5F5F5F5000000000000F5F500F500000000000000000000000000F500000000000000000000000000000000000000000000000000000000000000000000000000000000000000000000
310
00000000000000000000000000000000F5F5F50000000000000000000000F5F5F5F5000000000000000000000000000000000000000000000000000000000000000000000000000000000000000000000000000000000000000000000000F50000000000000000000000000000000000000000000000000000000000000000
310
0000000000000000000000000000000000000000000000000000000000000000000000000000000000F500000000000000F5F5F5F5F5F5F5F5F5F5000000000000F5F500F500000000000000000000000000F50000000000000000000000000000000000000000000000000000000000000000000000000000000000000000
310
000000000000000000000000000000000000F5F5F50000000000000000000000F5F5F5F5000000000000000000000000000000000000000000000000000000000000000000000000000000000000000000000000000000000000000000000000F5000000000000000000000000000000000000000000000000000000000000
310
00000000000000000000000000000000000000000000000000000000000000000000000000000000000000F500000000000000F5F5F5F5F5F5F5F5F5F5000000000000F5F500F500000000000000000000000000F5000000000000000000000000000000000000000000000000000000000000000000000000000000000000
310
0000000000000000000000000000000000000000F5F5F50000000000000000000000F5F5F5F5000000000000000000000000000000000000000000000000000000000000000000000000000000000000000000000000000000000000000000000000F500000000000000000000000000000000000000000000000000000000
310
000000000000000000000000000000000000000000000000000000000000000000000000000000000000000000F500000000000000F5F5F5F5F5F5F5F5F5F5000000000000F5F500F500000000000000000000000000F500000000000000000000000000000000000000000000000000000000000000000000000000000000
310
00000000000000000000000000000000000000000000F5F5F50000000000000000000000F5F5F5F5000000000000000000000000000000000000000000000000000000000000000000000000000000000000000000000000000000000000000000000000F50000000000000000000000000000000000000000000000000000
310
0000000000000000000000000000000000000000000000000000000000000000000000000000000000000000000000F500000000000000000000F5F5F5F5F5F5F5000000000000F5F500F500000000000000000000000000F50000000000000000000000000000000000000000000000000000000000000000000000000000
310
000000000000000000000000000000000000000000000000F5F5F50000000000000000000000F5F5F5F5000000000000000000000000000000000000000000000000000000000000000000000000000000000000000000000000000000000000000000000000F5000000000000000000000000000000000000000000000000
310
00000000000000000000000000000000000000000000000000000000000000000000000000000000000000000000000000F500000000000000000000F5F5F5F5F5F5F5000000000000F5F500F500000000000000000000000000F5000000000000000000000000000000000000000000000000000000000000000000000000
310
0000000000000000000000000000000000000000000000000000F5F5F50000000000000000000000F5F5F5F5000000000000000000000000000000000000000000000000000000000000000000000000000000000000000000000000000000000000000000000000F500000000000000000000000000000000000000000000
310
000000000000000000000000000000000000000000000000000000000000000000000000000000000000000000000000000000F500000000000000000000F5F5F5F5F5F5F5000000000000F5F500F500000000000000000000000000F500000000000000000000000000000000000000000000000000000000000000000000
310
00000000000000000000000000000000000000000000000000000000F5F5F50000000000000000000000F5F5F5F5000000000000000000000000000000000000000000000000000000000000000000000000000000000000000000000000000000000000000000000000F50000000000000000000000000000000000000000
310
0000000000000000000000000000000000000000000000000000000000000000000000000000000000000000000000000000000000F5000000000000000000000000F5F5F5F5F5000000000000F5F500F500000000000000000000000000F50000000000000000000000000000000000000000000000000000000000000000
310
000000000000000000000000000000000000000000000000000000000000F5F5F50000000000000000000000F5F5F5F5000000000000000000000000000000000000000000000000000000000000000000000000000000000000000000000000000000000000000000000000F5000000000000000000000000000000000000
310
00000000000000000000000000000000000000000000000000000000000000000000000000000000000000000000000000000000000000F5000000000000000000000000F5F5F5F5F5000000000000F5F500F500000000000000000000000000F5000000000000000000000000000000000000000000000000000000000000
310
0000000000000000000000000000000000000000000000000000000000000000F5F5F50000000000000000000000F5F5F5F5000000000000000000000000000000000000000000000000000000000000000000000000000000000000000000000000000000000000000000000000F500000000000000000000000000000000
310
000000000000000000000000000000000000000000000000000000000000000000000000000000000000000000000000000000000000000000F5000000000000000000000000000000F5F5000000000000F5F500F500000000000000000000000000F500000000000000000000000000000000000000000000000000000000
310
00000000000000000000000000000000000000000000000000000000000000000000F500000000000000000000000000F5F5F5F5000000000000000000000000000000000000000000000000000000000000000000000000000000000000000000000000000000000000000000000000F50000000000000000000000000000
310
0000000000000000000000000000000000000000000000000000000000000000000000000000000000000000000000000000000000000000000000F5000000000000000000000000000000F5F5000000000000F5F500F500000000000000000000000000F50000000000000000000000000000000000000000000000000000
310
000000000000000000000000000000000000000000000000000000000000000000000000F500000000000000000000000000F5F5F5F5000000000000000000000000000000000000000000000000000000000000000000000000000000000000000000000000000000000000000000000000F5000000000000000000000000
310
00000000000000000000000000000000000000000000000000000000000000000000000000000000000000000000000000000000000000000000000000F5000000000000000000F500000000000000000000000000F5F500F500000000000000000000000000F5000000000000000000000000000000000000000000000000
310
0000000000000000000000000000000000000000000000000000000000000000000000000000F500000000000000000000000000F5F5F5F5000000000000000000000000000000000000000000000000000000000000000000000000000000000000000000000000000000000000000000000000F500000000000000000000
310
000000000000000000000000000000000000000000000000000000000000000000000000000000000000000000000000000000000000000000000000000000F5000000000000000000F500000000000000000000000000000000F5F5F5F5F5F5F5F5F5F5F5F5F5F5F5F5F5F5F5F5F5F5F5F5F5F5F5F5F5F5F5F5F5F5F5F5F5
310
F5F5F5F5F5F5F5F5F5F5F5F5F5F5F5F5F5F5F5F5F5F5F5F5F5F5F5F5F5F5F5F5F5F5F5F5F5F5F5F5F5F5F5F5F5F5F5F5F5F5F5F5F5F5F5000000000000000000000000000000000000000000000000000000000000000000000000000000000000000000000000000000000000000000000000000000F50000000000000000
310
0000000000000000000000000000000000000000000000000000000000000000000000000000000000000000000000000000000000000000000000000000000000F500000000000000F5F5F5F5F5F5F5F5F5F5F5F5F5F5F5F5F5F5F5F5F5F5F5F5F5F5F5F5F5F5F5F5F5F5F5F50000000000F5000000000000000000000000
310
0000000000000000000000000000000000000000000000000000000000000000000000F50000000000F5F50000000000000000000000000000000000000000000000000000000000000000000000000000000000000000000000000000000000000000000000000000000000000000000000000000000000F5000000000000
310
00000000000000000000000000000000000000000000000000000000000000000000000000000000000000000000000000000000000000000000000000000000000000F500000000000000000000000000000000000000000000000000000000000000000000000000000000F5F5F50000000000F5F5F5F5F5F5F5F5F5F5F5
310
F5F5F5F5F5F5F5F5F5F5F5F5F5F5F5F5F5F5F5F5F5F5F5F5F5F5F5F5F5F5F5F5F5F5F5F5F5F50000000000F5F50000000000000000000000000000000000000000000000000000000000000000000000000000000000000000000000000000000000000000000000000000000000000000000000000000000000F500000000
310
000000000000000000000000000000000000000000000000000000000000000000000000000000000000000000000000000000000000000000000000000000000000000000F50000000000000000000000000000000000000000000000000000000000000000000000000000000000F5000000000000F50000000000000000
310
00000000000000000000000000F5F5F5F500000000000000000000000000000000000000000000F50000000000F5000000000000000000000000000000000000000000000000000000000000000000000000000000000000000000000000000000000000000000000000000000000000000000000000000000000000F50000
310
0000000000000000000000000000000000000000000000000000000000000000000000000000000000000000000000000000000000000000000000000000000000000000000000F50000000000000000000000000000000000000000000000000000000000000000000000000000000000F5000000000000F5F5F5F5F5F5F5
310
F5F5F5F5F5F5F5F5F5F5F5F5F5F5F5F5F5F5F5F5F5F5F5F5F5F5F5F5F5F5F5F5F5F5F5F5F5F5F5F5F5F50000000000F5000000000000000000000000000000000000000000000000000000000000000000000000000000000000000000000000000000000000000000000000000000000000000000000000000000000000F5
310
00000000000000000000000000000000000000000000000000000000000000000000000000000000000000000000000000000000000000000000000000000000000000000000000000F50000000000000000000000000000000000000000000000000000000000000000000000000000000000F5000000000000F500000000
310
0000000000000000000000000000000000F5F5F5F500000000000000000000000000000000000000000000F50000000000F50000000000000000000000000000000000000000000000000000000000000000000000000000000000000000000000000000000000000000000000000000000000000000000000000000000000
310
00F500000000000000000000000000000000000000000000000000000000000000000000000000000000000000000000000000000000000000000000000000000000000000000000000000F50000000000000000000000000000000000000000000000000000000000000000000000000000000000F5000000000000F50000
310
000000000000000000000000000000000000000000000000000000000000000000000000000000000000000000F50000000000F5000000000000000000000000000000000000000000000000000000000000000000000000000000000000000000000000000000000000000000000000000000000000000000000000000000
310
000000F500000000000000000000000000000000000000000000000000000000000000000000000000000000000000000000000000000000000000000000000000000000000000000000000000F50000000000000000000000000000000000000000000000000000000000000000000000000000000000F500000000000000
310
000000000000000000000000000000000000000000000000000000000000000000000000000000F500000000000000000000000000F500000000000000000000000000000000000000000000000000000000000000000000000000000000000000000000000000000000000000000000000000000000000000000000000000
310
0000000000F500000000000000000000000000000000000000000000000000000000000000000000000000000000000000000000000000000000000000000000000000000000000000000000000000F50000000000000000000000000000000000000000000000000000000000000000000000000000000000F50000000000
310
00000000000000000000000000000000F5F5F5F5F5F5F5F5F5F5F5F5F5F5F5F5F500000000000000F500F5000000000000000000000000F50000000000000000000000000000000000000000000000000000000000000000000000000000000000000000000000000000000000000000000000000000000000000000000000
310
00000000000000F500000000000000000000000000000000000000000000000000000000000000000000000000000000000000000000000000000000000000000000000000000000000000000000000000F50000000000000000000000000000000000000000000000000000000000000000000000000000000000F5000000
310
000000000000000000000000000000000000F5F5F5F5F5F5F5F5F5F5F5F5F5F5F5F5F500000000000000F500F5000000000000000000000000F5000000000000000000000000000000000000000000000000000000000000000000000000000000000000000000000000000000000000000000000000000000000000000000
310
000000000000000000F500000000000000000000000000000000000000000000000000000000000000000000000000000000000000000000000000000000000000000000000000000000000000000000000000F50000000000000000000000000000000000000000000000000000000000000000000000000000000000F500
310
0000000000000000000000000000000000000000F5F5F5F5F5F5F5F5F5F5F5F5F5F5F5F5F5000000000000F5F500F5F50000000000000000000000F500000000000000000000000000000000000000000000000000000000000000000000000000000000000000000000000000000000000000000000000000000000000000
310
0000000000000000000000F500000000000000000000000000000000000000000000000000000000000000000000000000000000000000000000000000000000000000000000000000000000000000000000000000F50000000000000000000000000000000000000000000000000000000000000000000000000000000000
310
F50000000000000000000000000000000000000000000000F5F5F5F5F5F5F5F5F5F5F5F5F5000000000000000000F500F5000000000000000000000000F50000000000000000000000000000000000000000000000000000000000000000000000000000000000000000000000000000000000000000000000000000000000
310
00000000000000000000000000F500000000000000000000000000000000000000000000000000000000000000000000000000000000000000000000000000000000000000000000000000000000000000000000000000F5000000000000000000000000000000000000000000000000000000000000000000000000000000
310
0000F50000000000000000000000000000000000000000000000F5F5F5F5F5F5F5F5F5F5F5F5F5000000000000000000F5F5F5000000000000000000000000F5000000000000000000000000000000000000000000000000000000000000000000000000000000000000000000000000000000000000000000000000000000
310
000000000000000000000000000000F500000000000000000000000000000000000000000000000000000000000000000000000000000000000000000000000000000000000000000000000000000000000000000000000000F500000000000000000000000000000000000000000000000000000000000000000000000000
310
00000000F500000000000000000000000000000000000000000000000000F5F5F5F5F5F5F5F5F50000000000000000000000000000000000000000000000000000F500000000000000000000000000000000000000000000000000000000000000000000000000000000000000000000000000000000000000000000000000
310
0000000000000000000000000000000000F500000000000000000000000000000000000000000000000000000000000000000000000000000000000000000000000000000000000000000000000000000000000000000000000000F50000000000000000000000000000000000000000000000000000000000000000000000
310
000000000000F500000000000000000000000000000000000000000000000000F5F5F5F5F5F5F5F5F50000000000000000000000000000000000000000000000000000F50000000000000000000000000000000000000000000000000000000000000000000000000000000000000000000000000000000000000000000000
310
00000000000000000000000000000000000000F500000000000000000000000000000000000000000000000000000000000000000000000000000000000000000000000000000000000000000000000000000000000000000000000000F5000000000000000000000000000000000000000000000000000000000000000000
310
0000000000000000F5000000000000000000000000000000000000000000000000000000F5F5F5F5F500000000000000000000000000000000000000000000000000000000F5000000000000000000000000000000000000000000000000000000000000000000000000000000000000000000000000000000000000000000
310
000000000000000000000000000000000000000000F500000000000000000000000000000000000000000000000000000000000000000000000000000000000000000000000000000000000000000000000000000000000000000000000000F500000000000000000000000000000000000000000000000000000000000000
310
00000000000000000000F5F5F5F5F5F5F5F5F5F5F5F5F5F5F5F5F5F5F5F5F5F5000000000000F5F5F5F5F500000000000000F5F5F5F5F5F5F5F5F5F5F5F5F5F5F5F5F5F5F5F5F5F500000000000000000000000000000000000000000000000000000000000000000000000000000000000000000000000000000000000000
310
0000000000000000000000000000000000000000000000F500000000000000000000000000000000000000000000000000000000000000000000000000000000000000000000000000000000000000000000000000000000000000000000000000F50000000000000000000000000000000000000000000000000000000000
310
000000000000000000000000F5000000000000000000000000000000000000000000000000000000F5F5F5F5F500000000000000000000000000000000000000000000000000000000F50000000000000000000000000000000000000000000000000000000000000000000000000000000000000000000000000000000000
310
00000000000000000000000000000000000000000000000000F500000000000000000000000000000000000000000000000000000000000000000000000000000000000000000000000000000000000000000000000000000000000000000000000000F5000000000000000000000000000000000000000000000000000000
310
0000000000000000000000000000F5000000000000000000000000000000000000000000000000000000000000000000000000000000000000000000000000000000000000000000000000F5000000000000000000000000000000000000000000000000000000000000000000000000000000000000000000000000000000
310
000000000000000000000000000000000000000000000000000000F500000000000000000000000000000000000000000000000000000000000000000000000000000000000000000000000000000000000000000000000000000000000000000000000000F500000000000000000000000000000000000000000000000000
310
00000000000000000000000000000000000000000000000000000000000000000000000000000000000000000000000000000000000000000000000000000000000000000000000000000000000000000000000000000000000000000000000000000000000000000000000000000000000000000000000000000000000000
310
0000000000000000000000000000000000000000000000000000000000F500000000000000000000000000000000000000000000000000000000000000000000000000000000000000000000000000000000000000000000000000000000000000000000000000F50000000000000000000000000000000000000000000000
310
00000000000000000000000000000000000000000000000000000000000000000000000000000000000000000000000000000000000000000000000000000000000000000000000000000000000000000000000000000000000000000000000000000000000000000000000000000000000000000000000000000000000000
310
00000000000000000000000000000000000000000000000000000000000000F500000000000000000000000000000000000000000000000000000000000000000000000000000000000000000000000000000000000000000000000000000000000000000000000000F5000000000000000000000000000000000000000000
310
00000000000000000000000000000000000000000000000000000000000000000000000000000000000000000000000000000000000000000000000000000000000000000000000000000000000000000000000000000000000000000000000000000000000000000000000000000000000000000000000000000000000000
310
000000000000000000000000000000000000000000000000000000000000000000F500000000000000000000000000000000000000000000000000000000000000000000000000000000000000000000000000000000000000000000000000000000000000000000000000F500000000000000000000000000000000000000
310
00000000000000000000000000000000000000000000000000000000000000000000000000000000000000000000000000000000000000000000000000000000000000000000000000000000000000000000000000000000000000000000000000000000000000000000000000000000000000000000000000000000000000
310
0000000000000000000000000000000000000000000000000000000000000000000000F500000000000000000000000000000000000000000000000000000000000000000000000000000000000000000000000000000000000000000000000000000000000000000000000000F50000000000000000000000000000000000
310
00000000000000000000000000000000000000000000000000000000000000000000000000000000000000000000000000000000000000000000000000000000000000000000000000000000000000000000000000000000000000000000000000000000000000000000000000000000000000000000000000000000000000
310
00000000000000000000000000000000000000000000000000000000000000000000000000F500000000000000000000000000000000000000000000000000000000000000000000000000000000000000000000000000000000000000000000000000000000000000000000000000F5000000000000000000000000000000
310
00000000000000000000000000000000000000000000000000000000000000000000000000000000000000000000000000000000000000000000000000000000000000000000000000000000000000000000000000000000000000000000000000000000000000000000000000000000000000000000000000000000000000
310
000000000000000000000000000000000000000000000000000000000000000000000000000000F500000000000000000000000000000000000000000000000000000000000000000000000000000000000000000000000000000000000000000000000000000000000000000000000000F500000000000000000000000000
310
00000000000000000000000000000000000000000000000000000000000000000000000000000000000000000000000000000000000000000000000000000000000000000000000000000000000000000000000000000000000000000000000000000000000000000000000000000000000000000000000000000000000000
310
0000000000000000000000000000000000000000000000000000000000000000000000000000000000F500000000000000000000000000000000000000000000000000000000000000000000000000000000000000000000000000000000000000000000000000000000000000000000000000F50000000000000000000000
310
00000000000000000000000000000000000000000000000000000000000000000000000000000000000000000000000000000000000000000000000000000000000000000000000000000000000000000000000000000000000000000000000000000000000000000000000000000000000000000000000000000000000000
310
00000000000000000000000000000000000000000000000000000000000000000000000000000000000000F500000000000000000000000000000000000000000000000000000000000000000000000000000000000000000000000000000000000000000000000000000000000000000000000000F5000000000000000000
310
00000000000000000000000000000000000000000000000000000000000000000000000000000000000000000000000000000000000000000000000000000000000000000000000000000000000000000000000000000000000000000000000000000000000000000000000000000000000000000000000000000000000000
310
000000000000000000000000000000000000000000000000000000000000000000000000000000000000000000F500000000000000000000000000000000000000000000000000000000000000000000000000000000000000000000000000000000000000000000000000000000000000000000000000F5F5F5F5F5F5F5F5
310
F5F5F5F5F5F5F5F5F5F5F5F5F5F5F5F5F5F5F5F5F5F5F5F5F5F5F5F5F5F5F5F5F5F5F5F5F5F5F5F5F5F5F5F5F5F5F5F5F5F5F5F5F5F5F5F5F5F5F5F5F5F5F5F5F5F5F5F5F5F5F5F5F5F5F5F5F5F5F5F5F5F5F5F5F5F5F5F5F5F5F5F5F5F5F5F5F5F5F5F5F5F5F5F5F5F5F5F5F5F5F5F5F5F5F5F5F5F5F5F5F5F5F5F5F5F5F5
310
F5F5F5F5F5F5F5F5F5F5F5F5F5F5F5F5F5F5F5F5F5F5F5F5F5F5F5F5F5F5F5F5F5F5F5F5F5F5F5F5F5F5F5F5F5F5F5F500000000000000000000000000000000000000000000000000000000000000000000000000000000000000000000000000000000000000000000000000000000000000000000000000000000000000
310
00000000000000000000000000000000000000000000000000000000000000000000000000000000000000000000000000000000000000000000000000000000000000000000000000000000000000000000000000000000000000000000000000000000000000000000000000000000000000000000000000000000000000
310
00000000000000000000000000000000000000000000000000000000000000000000000000000000000000000000000000000000000000000000000000000000000000000000000000000000000000000000000000000000000000000000000000000000000000000000000000000000000000000000000000000000000000
310
00000000000000000000000000000000000000000000000000000000000000000000000000000000000000000000000000000000000000000000000000000000000000000000000000000000000000000000000000000000000000000000000000000000000000000000000000000000000000000000000000000000000000
310
00000000000000000000000000000000000000000000000000000000000000000000000000000000000000000000000000000000000000000000000000000000000000000000000000000000000000000000000000000000000000000000000000000000000000000000000000000000000000000000000000000000000000
310
00000000000000000000000000000000000000000000000000000000000000000000000000000000000000000000000000000000000000000000000000000000000000000000000000000000000000000000000000000000000000000000000000000000000000000000000000000000000000000000000000000000000000
310
00000000000000000000000000000000000000000000000000000000000000000000000000000000000000000000000000000000000000000000000000000000000000000000000000000000000000000000000000000000000000000000000000000000000000000000000000000000000000000000000000000000000000
310
00000000000000000000000000000000000000000000000000000000000000000000000000000000000000000000000000000000000000000000000000000000000000000000000000000000000000000000000000000000000000000000000000000000000000000000000000000000000000000000000000000000000000
310
00000000000000000000000000000000000000000000000000000000000000000000000000000000000000000000000000000000000000000000000000000000000000000000000000000000000000000000000000000000000000000000000000000000000000000000000000000000000000000000000000000000000000
310
00000000000000000000000000000000000000000000000000000000000000000000000000000000000000000000000000000000000000000000000000000000000000000000000000000000000000000000000000000000000000000000000000000000000000000000000000000000000000000000000000000000000000
310
000000000000000000000000000000000000000000000000000000000000000000000000000000000000000000000000000000000000000000000000000000000000000000000000000000000000000000000000
  0
XRECORD
  5
848E
102
{ACAD_REACTORS
330
5594
102
}
330
5594
100
AcDbXrecord
280
     1
102
MATERIAL
148
0.0
149
0.0
149
0.0
 93
        0
 94
      127
282
     0
 72
     0
 77
     0
171
     0
175
     0
179
     0
273
     0
  0
XRECORD
  5
5596
102
{ACAD_REACTORS
330
5594
102
}
330
5594
100
AcDbXrecord
280
     1
270
     1
271
     1
  0
XRECORD
  5
5595
102
{ACAD_REACTORS
330
5594
102
}
330
5594
100
AcDbXrecord
280
     1
270
     1
271
     1
  0
XRECORD
  5
5599
102
{ACAD_REACTORS
330
5594
102
}
330
5594
100
AcDbXrecord
280
     1
270
     1
271
     1
  0
XRECORD
  5
5598
102
{ACAD_REACTORS
330
5594
102
}
330
5594
100
AcDbXrecord
280
     1
270
     1
271
     1
  0
XRECORD
  5
559A
102
{ACAD_REACTORS
330
5594
102
}
330
5594
100
AcDbXrecord
280
     1
270
     1
271
     1
  0
XRECORD
  5
5597
102
{ACAD_REACTORS
330
5594
102
}
330
5594
100
AcDbXrecord
280
     1
270
     1
271
     1
  0
XRECORD
  5
848D
102
{ACAD_REACTORS
330
558C
102
}
330
558C
100
AcDbXrecord
280
     1
102
MATERIAL
148
0.0
149
0.0
149
0.0
 93
        0
 94
      127
282
     0
 72
     0
 77
     0
171
     0
175
     0
179
     0
273
     0
  0
XRECORD
  5
558E
102
{ACAD_REACTORS
330
558C
102
}
330
558C
100
AcDbXrecord
280
     1
270
     1
271
     1
  0
XRECORD
  5
558D
102
{ACAD_REACTORS
330
558C
102
}
330
558C
100
AcDbXrecord
280
     1
270
     1
271
     1
  0
XRECORD
  5
5591
102
{ACAD_REACTORS
330
558C
102
}
330
558C
100
AcDbXrecord
280
     1
270
     1
271
     1
  0
XRECORD
  5
5590
102
{ACAD_REACTORS
330
558C
102
}
330
558C
100
AcDbXrecord
280
     1
270
     1
271
     1
  0
XRECORD
  5
5592
102
{ACAD_REACTORS
330
558C
102
}
330
558C
100
AcDbXrecord
280
     1
270
     1
271
     1
  0
XRECORD
  5
558F
102
{ACAD_REACTORS
330
558C
102
}
330
558C
100
AcDbXrecord
280
     1
270
     1
271
     1
  0
XRECORD
  5
848F
102
{ACAD_REACTORS
330
559C
102
}
330
559C
100
AcDbXrecord
280
     1
102
MATERIAL
148
0.0
149
0.0
149
0.0
 93
        0
 94
      127
282
     0
 72
     0
 77
     0
171
     0
175
     0
179
     0
273
     0
  0
XRECORD
  5
559E
102
{ACAD_REACTORS
330
559C
102
}
330
559C
100
AcDbXrecord
280
     1
270
     1
271
     1
  0
XRECORD
  5
559D
102
{ACAD_REACTORS
330
559C
102
}
330
559C
100
AcDbXrecord
280
     1
270
     1
271
     1
  0
XRECORD
  5
55A1
102
{ACAD_REACTORS
330
559C
102
}
330
559C
100
AcDbXrecord
280
     1
270
     1
271
     1
  0
XRECORD
  5
55A0
102
{ACAD_REACTORS
330
559C
102
}
330
559C
100
AcDbXrecord
280
     1
270
     1
271
     1
  0
XRECORD
  5
55A2
102
{ACAD_REACTORS
330
559C
102
}
330
559C
100
AcDbXrecord
280
     1
270
     1
271
     1
  0
XRECORD
  5
559F
102
{ACAD_REACTORS
330
559C
102
}
330
559C
100
AcDbXrecord
280
     1
270
     1
271
     1
  0
CELLSTYLEMAP
  5
D813
102
{ACAD_REACTORS
330
6782
102
}
330
6782
100
AcDbCellStyleMap
 90
        3
300
CELLSTYLE
  1
TABLEFORMAT_BEGIN
 90
        5
170
     1
 91
        0
 92
    32768
 62
   257
 93
        1
300
CONTENTFORMAT
  1
CONTENTFORMAT_BEGIN
 90
        0
 91
        0
 92
      512
 93
        0
300

 40
0.0
140
1.0
 94
        5
 62
     0
340
55CF
144
0.25
309
CONTENTFORMAT_END
171
     1
301
MARGIN
  1
CELLMARGIN_BEGIN
 40
0.06
 40
0.06
 40
0.06
 40
0.06
 40
0.18
 40
0.18
309
CELLMARGIN_END
 94
        6
 95
        1
302
GRIDFORMAT
  1
GRIDFORMAT_BEGIN
 90
        0
 91
        1
 62
     0
 92
       -2
340
0
 93
        0
 40
0.045
309
GRIDFORMAT_END
 95
        2
302
GRIDFORMAT
  1
GRIDFORMAT_BEGIN
 90
        0
 91
        1
 62
     0
 92
       -2
340
0
 93
        0
 40
0.045
309
GRIDFORMAT_END
 95
        4
302
GRIDFORMAT
  1
GRIDFORMAT_BEGIN
 90
        0
 91
        1
 62
     0
 92
       -2
340
0
 93
        0
 40
0.045
309
GRIDFORMAT_END
 95
        8
302
GRIDFORMAT
  1
GRIDFORMAT_BEGIN
 90
        0
 91
        1
 62
     0
 92
       -2
340
0
 93
        0
 40
0.045
309
GRIDFORMAT_END
 95
       16
302
GRIDFORMAT
  1
GRIDFORMAT_BEGIN
 90
        0
 91
        1
 62
     0
 92
       -2
340
0
 93
        0
 40
0.045
309
GRIDFORMAT_END
 95
       32
302
GRIDFORMAT
  1
GRIDFORMAT_BEGIN
 90
        0
 91
        1
 62
     0
 92
       -2
340
0
 93
        0
 40
0.045
309
GRIDFORMAT_END
309
TABLEFORMAT_END
  1
CELLSTYLE_BEGIN
 90
        1
 91
        1
300
_TITLE
309
CELLSTYLE_END
300
CELLSTYLE
  1
TABLEFORMAT_BEGIN
 90
        5
170
     1
 91
        0
 92
        0
 62
   257
 93
        1
300
CONTENTFORMAT
  1
CONTENTFORMAT_BEGIN
 90
        0
 91
        0
 92
      512
 93
        0
300

 40
0.0
140
1.0
 94
        5
 62
     0
340
55CF
144
0.18
309
CONTENTFORMAT_END
171
     1
301
MARGIN
  1
CELLMARGIN_BEGIN
 40
0.06
 40
0.06
 40
0.06
 40
0.06
 40
0.18
 40
0.18
309
CELLMARGIN_END
 94
        6
 95
        1
302
GRIDFORMAT
  1
GRIDFORMAT_BEGIN
 90
        0
 91
        1
 62
     0
 92
       -2
340
0
 93
        0
 40
0.045
309
GRIDFORMAT_END
 95
        2
302
GRIDFORMAT
  1
GRIDFORMAT_BEGIN
 90
        0
 91
        1
 62
     0
 92
       -2
340
0
 93
        0
 40
0.045
309
GRIDFORMAT_END
 95
        4
302
GRIDFORMAT
  1
GRIDFORMAT_BEGIN
 90
        0
 91
        1
 62
     0
 92
       -2
340
0
 93
        0
 40
0.045
309
GRIDFORMAT_END
 95
        8
302
GRIDFORMAT
  1
GRIDFORMAT_BEGIN
 90
        0
 91
        1
 62
     0
 92
       -2
340
0
 93
        0
 40
0.045
309
GRIDFORMAT_END
 95
       16
302
GRIDFORMAT
  1
GRIDFORMAT_BEGIN
 90
        0
 91
        1
 62
     0
 92
       -2
340
0
 93
        0
 40
0.045
309
GRIDFORMAT_END
 95
       32
302
GRIDFORMAT
  1
GRIDFORMAT_BEGIN
 90
        0
 91
        1
 62
     0
 92
       -2
340
0
 93
        0
 40
0.045
309
GRIDFORMAT_END
309
TABLEFORMAT_END
  1
CELLSTYLE_BEGIN
 90
        2
 91
        1
300
_HEADER
309
CELLSTYLE_END
300
CELLSTYLE
  1
TABLEFORMAT_BEGIN
 90
        5
170
     1
 91
        0
 92
        0
 62
   257
 93
        1
300
CONTENTFORMAT
  1
CONTENTFORMAT_BEGIN
 90
        0
 91
        0
 92
      512
 93
        0
300

 40
0.0
140
1.0
 94
        2
 62
     0
340
55CF
144
0.18
309
CONTENTFORMAT_END
171
     1
301
MARGIN
  1
CELLMARGIN_BEGIN
 40
0.06
 40
0.06
 40
0.06
 40
0.06
 40
0.18
 40
0.18
309
CELLMARGIN_END
 94
        6
 95
        1
302
GRIDFORMAT
  1
GRIDFORMAT_BEGIN
 90
        0
 91
        1
 62
     0
 92
       -2
340
0
 93
        0
 40
0.045
309
GRIDFORMAT_END
 95
        2
302
GRIDFORMAT
  1
GRIDFORMAT_BEGIN
 90
        0
 91
        1
 62
     0
 92
       -2
340
0
 93
        0
 40
0.045
309
GRIDFORMAT_END
 95
        4
302
GRIDFORMAT
  1
GRIDFORMAT_BEGIN
 90
        0
 91
        1
 62
     0
 92
       -2
340
0
 93
        0
 40
0.045
309
GRIDFORMAT_END
 95
        8
302
GRIDFORMAT
  1
GRIDFORMAT_BEGIN
 90
        0
 91
        1
 62
     0
 92
       -2
340
0
 93
        0
 40
0.045
309
GRIDFORMAT_END
 95
       16
302
GRIDFORMAT
  1
GRIDFORMAT_BEGIN
 90
        0
 91
        1
 62
     0
 92
       -2
340
0
 93
        0
 40
0.045
309
GRIDFORMAT_END
 95
       32
302
GRIDFORMAT
  1
GRIDFORMAT_BEGIN
 90
        0
 91
        1
 62
     0
 92
       -2
340
0
 93
        0
 40
0.045
309
GRIDFORMAT_END
309
TABLEFORMAT_END
  1
CELLSTYLE_BEGIN
 90
        3
 91
        2
300
_DATA
309
CELLSTYLE_END
  0
XRECORD
  5
D84A
102
{ACAD_REACTORS
330
6782
102
}
330
6782
100
AcDbXrecord
280
     1
102
ACAD_ROUNDTRIP_PRE2007_TABLESTYLE
 90
      512
 91
        0
  1

 92
      512
 93
        0
  2

 94
      512
 95
        0
  3

  0
XRECORD
  5
D825
102
{ACAD_REACTORS
330
D824
102
}
330
D824
100
AcDbXrecord
280
     1
102
RTVSPropertyOp0
 70
     1
102
RTVSPropertyOp1
 70
     1
102
RTVSPropertyOp2
 70
     1
102
RTVSPropertyOp3
 70
     1
102
RTVSPropertyOp4
 70
     1
102
RTVSPropertyOp5
 70
     1
102
RTVSPropertyOp6
 70
     1
102
RTVSPropertyOp7
 70
     1
102
RTVSPropertyOp8
 70
     1
102
RTVSPropertyOp9
 70
     1
102
RTVSPropertyOp10
 70
     1
102
RTVSPropertyOp11
 70
     1
102
RTVSPropertyOp12
 70
     1
102
RTVSPropertyOp13
 70
     1
102
RTVSPropertyOp14
 70
     1
102
RTVSPropertyOp15
 70
     1
102
RTVSPropertyOp16
 70
     1
102
RTVSPropertyOp17
 70
     1
102
RTVSPropertyOp18
 70
     1
102
RTVSPropertyOp19
 70
     1
102
RTVSPropertyOp20
 70
     1
102
RTVSPropertyOp21
 70
     1
102
RTVSPropertyOp22
 70
     1
102
RTVSPropertyOp23
 70
     1
102
RTVSPropertyOp24
 70
     1
102
RTVSPropertyOp25
 70
     1
102
RTVSPropertyOp26
 70
     1
102
RTVSPropertyOp27
 70
     1
102
RTVSPropertyOp28
 70
     1
102
RTVSPropertyOp29
 70
     1
102
RTVSPropertyOp30
 70
     1
102
RTVSPropertyOp31
 70
     1
102
RTVSPropertyOp32
 70
     1
  0
XRECORD
  5
D823
102
{ACAD_REACTORS
330
D822
102
}
330
D822
100
AcDbXrecord
280
     1
102
RTVSPropertyOp0
 70
     1
102
RTVSPropertyOp1
 70
     1
102
RTVSPropertyOp2
 70
     1
102
RTVSPropertyOp3
 70
     1
102
RTVSPropertyOp4
 70
     1
102
RTVSPropertyOp5
 70
     1
102
RTVSPropertyOp6
 70
     1
102
RTVSPropertyOp7
 70
     1
102
RTVSPropertyOp8
 70
     1
102
RTVSPropertyOp9
 70
     1
102
RTVSPropertyOp10
 70
     1
102
RTVSPropertyOp11
 70
     1
102
RTVSPropertyOp12
 70
     1
102
RTVSPropertyOp13
 70
     1
102
RTVSPropertyOp14
 70
     1
102
RTVSPropertyOp15
 70
     1
102
RTVSPropertyOp16
 70
     1
102
RTVSPropertyOp17
 70
     1
102
RTVSPropertyOp18
 70
     1
102
RTVSPropertyOp19
 70
     1
102
RTVSPropertyOp20
 70
     1
102
RTVSPropertyOp21
 70
     1
102
RTVSPropertyOp22
 70
     1
102
RTVSPropertyOp23
 70
     1
102
RTVSPropertyOp24
 70
     1
102
RTVSPropertyOp25
 70
     1
102
RTVSPropertyOp26
 70
     1
102
RTVSPropertyOp27
 70
     1
102
RTVSPropertyOp28
 70
     1
102
RTVSPropertyOp29
 70
     1
102
RTVSPropertyOp30
 70
     1
102
RTVSPropertyOp31
 70
     1
102
RTVSPropertyOp32
 70
     1
  0
XRECORD
  5
D831
102
{ACAD_REACTORS
330
D830
102
}
330
D830
100
AcDbXrecord
280
     1
102
RTVSPropertyOp0
 70
     1
102
RTVSPropertyOp1
 70
     1
102
RTVSPropertyOp2
 70
     1
102
RTVSPropertyOp3
 70
     1
102
RTVSPropertyOp4
 70
     1
102
RTVSPropertyOp5
 70
     1
102
RTVSPropertyOp6
 70
     1
102
RTVSPropertyOp7
 70
     1
102
RTVSPropertyOp8
 70
     1
102
RTVSPropertyOp9
 70
     1
102
RTVSPropertyOp10
 70
     1
102
RTVSPropertyOp11
 70
     1
102
RTVSPropertyOp12
 70
     1
102
RTVSPropertyOp13
 70
     1
102
RTVSPropertyOp14
 70
     1
102
RTVSPropertyOp15
 70
     1
102
RTVSPropertyOp16
 70
     1
102
RTVSPropertyOp17
 70
     1
102
RTVSPropertyOp18
 70
     1
102
RTVSPropertyOp19
 70
     1
102
RTVSPropertyOp20
 70
     1
102
RTVSPropertyOp21
 70
     1
102
RTVSPropertyOp22
 70
     1
102
RTVSPropertyOp23
 70
     1
102
RTVSPropertyOp24
 70
     1
102
RTVSPropertyOp25
 70
     1
102
RTVSPropertyOp26
 70
     1
102
RTVSPropertyOp27
 70
     1
102
RTVSPropertyOp28
 70
     1
102
RTVSPropertyOp29
 70
     1
102
RTVSPropertyOp30
 70
     1
102
RTVSPropertyOp31
 70
     1
102
RTVSPropertyOp32
 70
     1
  0
XRECORD
  5
D839
102
{ACAD_REACTORS
330
D838
102
}
330
D838
100
AcDbXrecord
280
     1
102
RTVSPropertyOp0
 70
     1
102
RTVSPropertyOp1
 70
     1
102
RTVSPropertyOp2
 70
     1
102
RTVSPropertyOp3
 70
     1
102
RTVSPropertyOp4
 70
     1
102
RTVSPropertyOp5
 70
     1
102
RTVSPropertyOp6
 70
     1
102
RTVSPropertyOp7
 70
     1
102
RTVSPropertyOp8
 70
     1
102
RTVSPropertyOp9
 70
     1
102
RTVSPropertyOp10
 70
     1
102
RTVSPropertyOp11
 70
     1
102
RTVSPropertyOp12
 70
     1
102
RTVSPropertyOp13
 70
     1
102
RTVSPropertyOp14
 70
     1
102
RTVSPropertyOp15
 70
     1
102
RTVSPropertyOp16
 70
     1
102
RTVSPropertyOp17
 70
     1
102
RTVSPropertyOp18
 70
     1
102
RTVSPropertyOp19
 70
     1
102
RTVSPropertyOp20
 70
     1
102
RTVSPropertyOp21
 70
     1
102
RTVSPropertyOp22
 70
     1
102
RTVSPropertyOp23
 70
     1
102
RTVSPropertyOp24
 70
     1
102
RTVSPropertyOp25
 70
     1
102
RTVSPropertyOp26
 70
     1
102
RTVSPropertyOp27
 70
     1
102
RTVSPropertyOp28
 70
     1
102
RTVSPropertyOp29
 70
     1
102
RTVSPropertyOp30
 70
     1
102
RTVSPropertyOp31
 70
     1
102
RTVSPropertyOp32
 70
     1
  0
XRECORD
  5
D82B
102
{ACAD_REACTORS
330
D82A
102
}
330
D82A
100
AcDbXrecord
280
     1
102
RTVSPropertyOp0
 70
     1
102
RTVSPropertyOp1
 70
     1
102
RTVSPropertyOp2
 70
     1
102
RTVSPropertyOp3
 70
     1
102
RTVSPropertyOp4
 70
     1
102
RTVSPropertyOp5
 70
     1
102
RTVSPropertyOp6
 70
     1
102
RTVSPropertyOp7
 70
     1
102
RTVSPropertyOp8
 70
     1
102
RTVSPropertyOp9
 70
     1
102
RTVSPropertyOp10
 70
     1
102
RTVSPropertyOp11
 70
     1
102
RTVSPropertyOp12
 70
     1
102
RTVSPropertyOp13
 70
     1
102
RTVSPropertyOp14
 70
     1
102
RTVSPropertyOp15
 70
     1
102
RTVSPropertyOp16
 70
     1
102
RTVSPropertyOp17
 70
     1
102
RTVSPropertyOp18
 70
     1
102
RTVSPropertyOp19
 70
     1
102
RTVSPropertyOp20
 70
     1
102
RTVSPropertyOp21
 70
     1
102
RTVSPropertyOp22
 70
     1
102
RTVSPropertyOp23
 70
     1
102
RTVSPropertyOp24
 70
     1
102
RTVSPropertyOp25
 70
     1
102
RTVSPropertyOp26
 70
     1
102
RTVSPropertyOp27
 70
     1
102
RTVSPropertyOp28
 70
     1
102
RTVSPropertyOp29
 70
     1
102
RTVSPropertyOp30
 70
     1
102
RTVSPropertyOp31
 70
     1
102
RTVSPropertyOp32
 70
     1
  0
XRECORD
  5
D82F
102
{ACAD_REACTORS
330
D82E
102
}
330
D82E
100
AcDbXrecord
280
     1
102
RTVSPropertyOp0
 70
     1
102
RTVSPropertyOp1
 70
     1
102
RTVSPropertyOp2
 70
     1
102
RTVSPropertyOp3
 70
     1
102
RTVSPropertyOp4
 70
     1
102
RTVSPropertyOp5
 70
     1
102
RTVSPropertyOp6
 70
     1
102
RTVSPropertyOp7
 70
     1
102
RTVSPropertyOp8
 70
     1
102
RTVSPropertyOp9
 70
     1
102
RTVSPropertyOp10
 70
     1
102
RTVSPropertyOp11
 70
     1
102
RTVSPropertyOp12
 70
     1
102
RTVSPropertyOp13
 70
     1
102
RTVSPropertyOp14
 70
     1
102
RTVSPropertyOp15
 70
     1
102
RTVSPropertyOp16
 70
     1
102
RTVSPropertyOp17
 70
     1
102
RTVSPropertyOp18
 70
     1
102
RTVSPropertyOp19
 70
     1
102
RTVSPropertyOp20
 70
     1
102
RTVSPropertyOp21
 70
     1
102
RTVSPropertyOp22
 70
     1
102
RTVSPropertyOp23
 70
     1
102
RTVSPropertyOp24
 70
     1
102
RTVSPropertyOp25
 70
     1
102
RTVSPropertyOp26
 70
     1
102
RTVSPropertyOp27
 70
     1
102
RTVSPropertyOp28
 70
     1
102
RTVSPropertyOp29
 70
     1
102
RTVSPropertyOp30
 70
     1
102
RTVSPropertyOp31
 70
     1
102
RTVSPropertyOp32
 70
     1
  0
XRECORD
  5
D849
102
{ACAD_REACTORS
330
D848
102
}
330
D848
100
AcDbXrecord
280
     1
102
RTVSPropertyOp0
 70
     0
102
RTVSPropertyOp1
 70
     0
102
RTVSPropertyOp2
 70
     0
102
RTVSPropertyOp3
 70
     0
102
RTVSPropertyOp4
 70
     0
102
RTVSPropertyOp5
 70
     0
102
RTVSPropertyOp6
 70
     0
102
RTVSPropertyOp7
 70
     0
102
RTVSPropertyOp8
 70
     0
102
RTVSPropertyOp9
 70
     0
102
RTVSPropertyOp10
 70
     0
102
RTVSPropertyOp11
 70
     0
102
RTVSPropertyOp12
 70
     0
102
RTVSPropertyOp13
 70
     0
102
RTVSPropertyOp14
 70
     2
102
RTVSPropertyOp15
 70
     0
102
RTVSPropertyOp16
 70
     0
102
RTVSPropertyOp17
 70
     0
102
RTVSPropertyOp18
 70
     0
102
RTVSPropertyOp19
 70
     0
102
RTVSPropertyOp20
 70
     0
102
RTVSPropertyOp21
 70
     0
102
RTVSPropertyOp22
 70
     0
102
RTVSPropertyOp23
 70
     0
102
RTVSPropertyOp24
 70
     0
102
RTVSPropertyOp25
 70
     0
102
RTVSPropertyOp26
 70
     0
102
RTVSPropertyOp27
 70
     0
102
RTVSPropertyOp28
 70
     0
102
RTVSPropertyOp29
 70
     0
102
RTVSPropertyOp30
 70
     0
102
RTVSPropertyOp31
 70
     0
102
RTVSPropertyOp32
 70
     0
  0
XRECORD
  5
D837
102
{ACAD_REACTORS
330
D836
102
}
330
D836
100
AcDbXrecord
280
     1
102
RTVSPropertyOp0
 70
     1
102
RTVSPropertyOp1
 70
     1
102
RTVSPropertyOp2
 70
     1
102
RTVSPropertyOp3
 70
     1
102
RTVSPropertyOp4
 70
     1
102
RTVSPropertyOp5
 70
     1
102
RTVSPropertyOp6
 70
     1
102
RTVSPropertyOp7
 70
     1
102
RTVSPropertyOp8
 70
     1
102
RTVSPropertyOp9
 70
     1
102
RTVSPropertyOp10
 70
     1
102
RTVSPropertyOp11
 70
     1
102
RTVSPropertyOp12
 70
     1
102
RTVSPropertyOp13
 70
     1
102
RTVSPropertyOp14
 70
     1
102
RTVSPropertyOp15
 70
     1
102
RTVSPropertyOp16
 70
     1
102
RTVSPropertyOp17
 70
     1
102
RTVSPropertyOp18
 70
     1
102
RTVSPropertyOp19
 70
     1
102
RTVSPropertyOp20
 70
     1
102
RTVSPropertyOp21
 70
     1
102
RTVSPropertyOp22
 70
     1
102
RTVSPropertyOp23
 70
     1
102
RTVSPropertyOp24
 70
     1
102
RTVSPropertyOp25
 70
     1
102
RTVSPropertyOp26
 70
     1
102
RTVSPropertyOp27
 70
     1
102
RTVSPropertyOp28
 70
     1
102
RTVSPropertyOp29
 70
     1
102
RTVSPropertyOp30
 70
     1
102
RTVSPropertyOp31
 70
     1
102
RTVSPropertyOp32
 70
     1
  0
XRECORD
  5
D81B
102
{ACAD_REACTORS
330
D81A
102
}
330
D81A
100
AcDbXrecord
280
     1
102
RTVSPropertyOp0
 70
     1
102
RTVSPropertyOp1
 70
     1
102
RTVSPropertyOp2
 70
     1
102
RTVSPropertyOp3
 70
     1
102
RTVSPropertyOp4
 70
     1
102
RTVSPropertyOp5
 70
     1
102
RTVSPropertyOp6
 70
     1
102
RTVSPropertyOp7
 70
     1
102
RTVSPropertyOp8
 70
     1
102
RTVSPropertyOp9
 70
     1
102
RTVSPropertyOp10
 70
     1
102
RTVSPropertyOp11
 70
     1
102
RTVSPropertyOp12
 70
     1
102
RTVSPropertyOp13
 70
     1
102
RTVSPropertyOp14
 70
     1
102
RTVSPropertyOp15
 70
     1
102
RTVSPropertyOp16
 70
     1
102
RTVSPropertyOp17
 70
     1
102
RTVSPropertyOp18
 70
     1
102
RTVSPropertyOp19
 70
     1
102
RTVSPropertyOp20
 70
     1
102
RTVSPropertyOp21
 70
     1
102
RTVSPropertyOp22
 70
     1
102
RTVSPropertyOp23
 70
     1
102
RTVSPropertyOp24
 70
     1
102
RTVSPropertyOp25
 70
     1
102
RTVSPropertyOp26
 70
     1
102
RTVSPropertyOp27
 70
     1
102
RTVSPropertyOp28
 70
     1
102
RTVSPropertyOp29
 70
     1
102
RTVSPropertyOp30
 70
     1
102
RTVSPropertyOp31
 70
     1
102
RTVSPropertyOp32
 70
     1
  0
XRECORD
  5
D81D
102
{ACAD_REACTORS
330
D81C
102
}
330
D81C
100
AcDbXrecord
280
     1
102
RTVSPropertyOp0
 70
     1
102
RTVSPropertyOp1
 70
     1
102
RTVSPropertyOp2
 70
     1
102
RTVSPropertyOp3
 70
     1
102
RTVSPropertyOp4
 70
     1
102
RTVSPropertyOp5
 70
     1
102
RTVSPropertyOp6
 70
     1
102
RTVSPropertyOp7
 70
     1
102
RTVSPropertyOp8
 70
     1
102
RTVSPropertyOp9
 70
     1
102
RTVSPropertyOp10
 70
     1
102
RTVSPropertyOp11
 70
     1
102
RTVSPropertyOp12
 70
     1
102
RTVSPropertyOp13
 70
     1
102
RTVSPropertyOp14
 70
     1
102
RTVSPropertyOp15
 70
     1
102
RTVSPropertyOp16
 70
     1
102
RTVSPropertyOp17
 70
     1
102
RTVSPropertyOp18
 70
     1
102
RTVSPropertyOp19
 70
     1
102
RTVSPropertyOp20
 70
     1
102
RTVSPropertyOp21
 70
     1
102
RTVSPropertyOp22
 70
     1
102
RTVSPropertyOp23
 70
     1
102
RTVSPropertyOp24
 70
     1
102
RTVSPropertyOp25
 70
     1
102
RTVSPropertyOp26
 70
     1
102
RTVSPropertyOp27
 70
     1
102
RTVSPropertyOp28
 70
     1
102
RTVSPropertyOp29
 70
     1
102
RTVSPropertyOp30
 70
     1
102
RTVSPropertyOp31
 70
     1
102
RTVSPropertyOp32
 70
     1
  0
XRECORD
  5
D81F
102
{ACAD_REACTORS
330
D81E
102
}
330
D81E
100
AcDbXrecord
280
     1
102
RTVSPropertyOp0
 70
     1
102
RTVSPropertyOp1
 70
     1
102
RTVSPropertyOp2
 70
     1
102
RTVSPropertyOp3
 70
     1
102
RTVSPropertyOp4
 70
     1
102
RTVSPropertyOp5
 70
     1
102
RTVSPropertyOp6
 70
     1
102
RTVSPropertyOp7
 70
     1
102
RTVSPropertyOp8
 70
     1
102
RTVSPropertyOp9
 70
     1
102
RTVSPropertyOp10
 70
     1
102
RTVSPropertyOp11
 70
     1
102
RTVSPropertyOp12
 70
     1
102
RTVSPropertyOp13
 70
     1
102
RTVSPropertyOp14
 70
     1
102
RTVSPropertyOp15
 70
     1
102
RTVSPropertyOp16
 70
     1
102
RTVSPropertyOp17
 70
     1
102
RTVSPropertyOp18
 70
     1
102
RTVSPropertyOp19
 70
     1
102
RTVSPropertyOp20
 70
     1
102
RTVSPropertyOp21
 70
     1
102
RTVSPropertyOp22
 70
     1
102
RTVSPropertyOp23
 70
     1
102
RTVSPropertyOp24
 70
     1
102
RTVSPropertyOp25
 70
     1
102
RTVSPropertyOp26
 70
     1
102
RTVSPropertyOp27
 70
     1
102
RTVSPropertyOp28
 70
     1
102
RTVSPropertyOp29
 70
     1
102
RTVSPropertyOp30
 70
     1
102
RTVSPropertyOp31
 70
     1
102
RTVSPropertyOp32
 70
     1
  0
XRECORD
  5
D821
102
{ACAD_REACTORS
330
D820
102
}
330
D820
100
AcDbXrecord
280
     1
102
RTVSPropertyOp0
 70
     1
102
RTVSPropertyOp1
 70
     1
102
RTVSPropertyOp2
 70
     1
102
RTVSPropertyOp3
 70
     1
102
RTVSPropertyOp4
 70
     1
102
RTVSPropertyOp5
 70
     1
102
RTVSPropertyOp6
 70
     1
102
RTVSPropertyOp7
 70
     1
102
RTVSPropertyOp8
 70
     1
102
RTVSPropertyOp9
 70
     1
102
RTVSPropertyOp10
 70
     1
102
RTVSPropertyOp11
 70
     1
102
RTVSPropertyOp12
 70
     1
102
RTVSPropertyOp13
 70
     1
102
RTVSPropertyOp14
 70
     1
102
RTVSPropertyOp15
 70
     1
102
RTVSPropertyOp16
 70
     1
102
RTVSPropertyOp17
 70
     1
102
RTVSPropertyOp18
 70
     1
102
RTVSPropertyOp19
 70
     1
102
RTVSPropertyOp20
 70
     1
102
RTVSPropertyOp21
 70
     1
102
RTVSPropertyOp22
 70
     1
102
RTVSPropertyOp23
 70
     1
102
RTVSPropertyOp24
 70
     1
102
RTVSPropertyOp25
 70
     1
102
RTVSPropertyOp26
 70
     1
102
RTVSPropertyOp27
 70
     1
102
RTVSPropertyOp28
 70
     1
102
RTVSPropertyOp29
 70
     1
102
RTVSPropertyOp30
 70
     1
102
RTVSPropertyOp31
 70
     1
102
RTVSPropertyOp32
 70
     1
  0
XRECORD
  5
D829
102
{ACAD_REACTORS
330
D828
102
}
330
D828
100
AcDbXrecord
280
     1
102
RTVSPropertyOp0
 70
     1
102
RTVSPropertyOp1
 70
     1
102
RTVSPropertyOp2
 70
     1
102
RTVSPropertyOp3
 70
     1
102
RTVSPropertyOp4
 70
     1
102
RTVSPropertyOp5
 70
     1
102
RTVSPropertyOp6
 70
     1
102
RTVSPropertyOp7
 70
     1
102
RTVSPropertyOp8
 70
     1
102
RTVSPropertyOp9
 70
     1
102
RTVSPropertyOp10
 70
     1
102
RTVSPropertyOp11
 70
     1
102
RTVSPropertyOp12
 70
     1
102
RTVSPropertyOp13
 70
     1
102
RTVSPropertyOp14
 70
     1
102
RTVSPropertyOp15
 70
     1
102
RTVSPropertyOp16
 70
     1
102
RTVSPropertyOp17
 70
     1
102
RTVSPropertyOp18
 70
     1
102
RTVSPropertyOp19
 70
     1
102
RTVSPropertyOp20
 70
     1
102
RTVSPropertyOp21
 70
     1
102
RTVSPropertyOp22
 70
     1
102
RTVSPropertyOp23
 70
     1
102
RTVSPropertyOp24
 70
     1
102
RTVSPropertyOp25
 70
     1
102
RTVSPropertyOp26
 70
     1
102
RTVSPropertyOp27
 70
     1
102
RTVSPropertyOp28
 70
     1
102
RTVSPropertyOp29
 70
     1
102
RTVSPropertyOp30
 70
     1
102
RTVSPropertyOp31
 70
     1
102
RTVSPropertyOp32
 70
     1
  0
XRECORD
  5
D845
102
{ACAD_REACTORS
330
D844
102
}
330
D844
100
AcDbXrecord
280
     1
102
RTVSPropertyOp0
 70
     0
102
RTVSPropertyOp1
 70
     0
102
RTVSPropertyOp2
 70
     0
102
RTVSPropertyOp3
 70
     0
102
RTVSPropertyOp4
 70
     0
102
RTVSPropertyOp5
 70
     0
102
RTVSPropertyOp6
 70
     0
102
RTVSPropertyOp7
 70
     0
102
RTVSPropertyOp8
 70
     0
102
RTVSPropertyOp9
 70
     0
102
RTVSPropertyOp10
 70
     0
102
RTVSPropertyOp11
 70
     0
102
RTVSPropertyOp12
 70
     0
102
RTVSPropertyOp13
 70
     0
102
RTVSPropertyOp14
 70
     2
102
RTVSPropertyOp15
 70
     0
102
RTVSPropertyOp16
 70
     0
102
RTVSPropertyOp17
 70
     0
102
RTVSPropertyOp18
 70
     0
102
RTVSPropertyOp19
 70
     0
102
RTVSPropertyOp20
 70
     0
102
RTVSPropertyOp21
 70
     0
102
RTVSPropertyOp22
 70
     0
102
RTVSPropertyOp23
 70
     0
102
RTVSPropertyOp24
 70
     0
102
RTVSPropertyOp25
 70
     0
102
RTVSPropertyOp26
 70
     0
102
RTVSPropertyOp27
 70
     0
102
RTVSPropertyOp28
 70
     0
102
RTVSPropertyOp29
 70
     0
102
RTVSPropertyOp30
 70
     0
102
RTVSPropertyOp31
 70
     0
102
RTVSPropertyOp32
 70
     0
  0
XRECORD
  5
D835
102
{ACAD_REACTORS
330
D834
102
}
330
D834
100
AcDbXrecord
280
     1
102
RTVSPropertyOp0
 70
     1
102
RTVSPropertyOp1
 70
     1
102
RTVSPropertyOp2
 70
     1
102
RTVSPropertyOp3
 70
     1
102
RTVSPropertyOp4
 70
     1
102
RTVSPropertyOp5
 70
     1
102
RTVSPropertyOp6
 70
     1
102
RTVSPropertyOp7
 70
     1
102
RTVSPropertyOp8
 70
     1
102
RTVSPropertyOp9
 70
     1
102
RTVSPropertyOp10
 70
     1
102
RTVSPropertyOp11
 70
     1
102
RTVSPropertyOp12
 70
     1
102
RTVSPropertyOp13
 70
     1
102
RTVSPropertyOp14
 70
     1
102
RTVSPropertyOp15
 70
     1
102
RTVSPropertyOp16
 70
     1
102
RTVSPropertyOp17
 70
     1
102
RTVSPropertyOp18
 70
     1
102
RTVSPropertyOp19
 70
     1
102
RTVSPropertyOp20
 70
     1
102
RTVSPropertyOp21
 70
     1
102
RTVSPropertyOp22
 70
     1
102
RTVSPropertyOp23
 70
     1
102
RTVSPropertyOp24
 70
     1
102
RTVSPropertyOp25
 70
     1
102
RTVSPropertyOp26
 70
     1
102
RTVSPropertyOp27
 70
     1
102
RTVSPropertyOp28
 70
     1
102
RTVSPropertyOp29
 70
     1
102
RTVSPropertyOp30
 70
     1
102
RTVSPropertyOp31
 70
     1
102
RTVSPropertyOp32
 70
     1
  0
XRECORD
  5
D847
102
{ACAD_REACTORS
330
D846
102
}
330
D846
100
AcDbXrecord
280
     1
102
RTVSPropertyOp0
 70
     0
102
RTVSPropertyOp1
 70
     0
102
RTVSPropertyOp2
 70
     0
102
RTVSPropertyOp3
 70
     0
102
RTVSPropertyOp4
 70
     0
102
RTVSPropertyOp5
 70
     0
102
RTVSPropertyOp6
 70
     0
102
RTVSPropertyOp7
 70
     0
102
RTVSPropertyOp8
 70
     0
102
RTVSPropertyOp9
 70
     0
102
RTVSPropertyOp10
 70
     0
102
RTVSPropertyOp11
 70
     0
102
RTVSPropertyOp12
 70
     0
102
RTVSPropertyOp13
 70
     0
102
RTVSPropertyOp14
 70
     2
102
RTVSPropertyOp15
 70
     0
102
RTVSPropertyOp16
 70
     0
102
RTVSPropertyOp17
 70
     0
102
RTVSPropertyOp18
 70
     0
102
RTVSPropertyOp19
 70
     0
102
RTVSPropertyOp20
 70
     0
102
RTVSPropertyOp21
 70
     0
102
RTVSPropertyOp22
 70
     0
102
RTVSPropertyOp23
 70
     0
102
RTVSPropertyOp24
 70
     0
102
RTVSPropertyOp25
 70
     0
102
RTVSPropertyOp26
 70
     0
102
RTVSPropertyOp27
 70
     0
102
RTVSPropertyOp28
 70
     0
102
RTVSPropertyOp29
 70
     0
102
RTVSPropertyOp30
 70
     0
102
RTVSPropertyOp31
 70
     0
102
RTVSPropertyOp32
 70
     0
  0
XRECORD
  5
D82D
102
{ACAD_REACTORS
330
D82C
102
}
330
D82C
100
AcDbXrecord
280
     1
102
RTVSPropertyOp0
 70
     1
102
RTVSPropertyOp1
 70
     1
102
RTVSPropertyOp2
 70
     1
102
RTVSPropertyOp3
 70
     1
102
RTVSPropertyOp4
 70
     1
102
RTVSPropertyOp5
 70
     1
102
RTVSPropertyOp6
 70
     1
102
RTVSPropertyOp7
 70
     1
102
RTVSPropertyOp8
 70
     1
102
RTVSPropertyOp9
 70
     1
102
RTVSPropertyOp10
 70
     1
102
RTVSPropertyOp11
 70
     1
102
RTVSPropertyOp12
 70
     1
102
RTVSPropertyOp13
 70
     1
102
RTVSPropertyOp14
 70
     1
102
RTVSPropertyOp15
 70
     1
102
RTVSPropertyOp16
 70
     1
102
RTVSPropertyOp17
 70
     1
102
RTVSPropertyOp18
 70
     1
102
RTVSPropertyOp19
 70
     1
102
RTVSPropertyOp20
 70
     1
102
RTVSPropertyOp21
 70
     1
102
RTVSPropertyOp22
 70
     1
102
RTVSPropertyOp23
 70
     1
102
RTVSPropertyOp24
 70
     1
102
RTVSPropertyOp25
 70
     1
102
RTVSPropertyOp26
 70
     1
102
RTVSPropertyOp27
 70
     1
102
RTVSPropertyOp28
 70
     1
102
RTVSPropertyOp29
 70
     1
102
RTVSPropertyOp30
 70
     1
102
RTVSPropertyOp31
 70
     1
102
RTVSPropertyOp32
 70
     1
  0
XRECORD
  5
D843
102
{ACAD_REACTORS
330
D842
102
}
330
D842
100
AcDbXrecord
280
     1
102
RTVSPropertyOp0
 70
     1
102
RTVSPropertyOp1
 70
     1
102
RTVSPropertyOp2
 70
     1
102
RTVSPropertyOp3
 70
     1
102
RTVSPropertyOp4
 70
     1
102
RTVSPropertyOp5
 70
     1
102
RTVSPropertyOp6
 70
     1
102
RTVSPropertyOp7
 70
     1
102
RTVSPropertyOp8
 70
     1
102
RTVSPropertyOp9
 70
     1
102
RTVSPropertyOp10
 70
     1
102
RTVSPropertyOp11
 70
     1
102
RTVSPropertyOp12
 70
     1
102
RTVSPropertyOp13
 70
     1
102
RTVSPropertyOp14
 70
     1
102
RTVSPropertyOp15
 70
     1
102
RTVSPropertyOp16
 70
     1
102
RTVSPropertyOp17
 70
     1
102
RTVSPropertyOp18
 70
     1
102
RTVSPropertyOp19
 70
     1
102
RTVSPropertyOp20
 70
     1
102
RTVSPropertyOp21
 70
     1
102
RTVSPropertyOp22
 70
     1
102
RTVSPropertyOp23
 70
     1
102
RTVSPropertyOp24
 70
     1
102
RTVSPropertyOp25
 70
     1
102
RTVSPropertyOp26
 70
     1
102
RTVSPropertyOp27
 70
     1
102
RTVSPropertyOp28
 70
     1
102
RTVSPropertyOp29
 70
     1
102
RTVSPropertyOp30
 70
     1
102
RTVSPropertyOp31
 70
     1
102
RTVSPropertyOp32
 70
     1
  0
XRECORD
  5
D841
102
{ACAD_REACTORS
330
D840
102
}
330
D840
100
AcDbXrecord
280
     1
102
RTVSPropertyOp0
 70
     1
102
RTVSPropertyOp1
 70
     1
102
RTVSPropertyOp2
 70
     1
102
RTVSPropertyOp3
 70
     1
102
RTVSPropertyOp4
 70
     1
102
RTVSPropertyOp5
 70
     1
102
RTVSPropertyOp6
 70
     1
102
RTVSPropertyOp7
 70
     1
102
RTVSPropertyOp8
 70
     1
102
RTVSPropertyOp9
 70
     1
102
RTVSPropertyOp10
 70
     1
102
RTVSPropertyOp11
 70
     1
102
RTVSPropertyOp12
 70
     1
102
RTVSPropertyOp13
 70
     1
102
RTVSPropertyOp14
 70
     1
102
RTVSPropertyOp15
 70
     1
102
RTVSPropertyOp16
 70
     1
102
RTVSPropertyOp17
 70
     1
102
RTVSPropertyOp18
 70
     1
102
RTVSPropertyOp19
 70
     1
102
RTVSPropertyOp20
 70
     1
102
RTVSPropertyOp21
 70
     1
102
RTVSPropertyOp22
 70
     1
102
RTVSPropertyOp23
 70
     1
102
RTVSPropertyOp24
 70
     1
102
RTVSPropertyOp25
 70
     1
102
RTVSPropertyOp26
 70
     1
102
RTVSPropertyOp27
 70
     1
102
RTVSPropertyOp28
 70
     1
102
RTVSPropertyOp29
 70
     1
102
RTVSPropertyOp30
 70
     1
102
RTVSPropertyOp31
 70
     1
102
RTVSPropertyOp32
 70
     1
  0
XRECORD
  5
D83B
102
{ACAD_REACTORS
330
D83A
102
}
330
D83A
100
AcDbXrecord
280
     1
102
RTVSPropertyOp0
 70
     1
102
RTVSPropertyOp1
 70
     1
102
RTVSPropertyOp2
 70
     1
102
RTVSPropertyOp3
 70
     1
102
RTVSPropertyOp4
 70
     1
102
RTVSPropertyOp5
 70
     1
102
RTVSPropertyOp6
 70
     1
102
RTVSPropertyOp7
 70
     1
102
RTVSPropertyOp8
 70
     1
102
RTVSPropertyOp9
 70
     1
102
RTVSPropertyOp10
 70
     1
102
RTVSPropertyOp11
 70
     1
102
RTVSPropertyOp12
 70
     1
102
RTVSPropertyOp13
 70
     1
102
RTVSPropertyOp14
 70
     1
102
RTVSPropertyOp15
 70
     1
102
RTVSPropertyOp16
 70
     1
102
RTVSPropertyOp17
 70
     1
102
RTVSPropertyOp18
 70
     1
102
RTVSPropertyOp19
 70
     1
102
RTVSPropertyOp20
 70
     1
102
RTVSPropertyOp21
 70
     1
102
RTVSPropertyOp22
 70
     1
102
RTVSPropertyOp23
 70
     1
102
RTVSPropertyOp24
 70
     1
102
RTVSPropertyOp25
 70
     1
102
RTVSPropertyOp26
 70
     1
102
RTVSPropertyOp27
 70
     1
102
RTVSPropertyOp28
 70
     1
102
RTVSPropertyOp29
 70
     1
102
RTVSPropertyOp30
 70
     1
102
RTVSPropertyOp31
 70
     1
102
RTVSPropertyOp32
 70
     1
  0
XRECORD
  5
D83D
102
{ACAD_REACTORS
330
D83C
102
}
330
D83C
100
AcDbXrecord
280
     1
102
RTVSPropertyOp0
 70
     1
102
RTVSPropertyOp1
 70
     1
102
RTVSPropertyOp2
 70
     1
102
RTVSPropertyOp3
 70
     1
102
RTVSPropertyOp4
 70
     1
102
RTVSPropertyOp5
 70
     1
102
RTVSPropertyOp6
 70
     1
102
RTVSPropertyOp7
 70
     1
102
RTVSPropertyOp8
 70
     1
102
RTVSPropertyOp9
 70
     1
102
RTVSPropertyOp10
 70
     1
102
RTVSPropertyOp11
 70
     1
102
RTVSPropertyOp12
 70
     1
102
RTVSPropertyOp13
 70
     1
102
RTVSPropertyOp14
 70
     1
102
RTVSPropertyOp15
 70
     1
102
RTVSPropertyOp16
 70
     1
102
RTVSPropertyOp17
 70
     1
102
RTVSPropertyOp18
 70
     1
102
RTVSPropertyOp19
 70
     1
102
RTVSPropertyOp20
 70
     1
102
RTVSPropertyOp21
 70
     1
102
RTVSPropertyOp22
 70
     1
102
RTVSPropertyOp23
 70
     1
102
RTVSPropertyOp24
 70
     1
102
RTVSPropertyOp25
 70
     1
102
RTVSPropertyOp26
 70
     1
102
RTVSPropertyOp27
 70
     1
102
RTVSPropertyOp28
 70
     1
102
RTVSPropertyOp29
 70
     1
102
RTVSPropertyOp30
 70
     1
102
RTVSPropertyOp31
 70
     1
102
RTVSPropertyOp32
 70
     1
  0
XRECORD
  5
D833
102
{ACAD_REACTORS
330
D832
102
}
330
D832
100
AcDbXrecord
280
     1
102
RTVSPropertyOp0
 70
     1
102
RTVSPropertyOp1
 70
     1
102
RTVSPropertyOp2
 70
     1
102
RTVSPropertyOp3
 70
     1
102
RTVSPropertyOp4
 70
     1
102
RTVSPropertyOp5
 70
     1
102
RTVSPropertyOp6
 70
     1
102
RTVSPropertyOp7
 70
     1
102
RTVSPropertyOp8
 70
     1
102
RTVSPropertyOp9
 70
     1
102
RTVSPropertyOp10
 70
     1
102
RTVSPropertyOp11
 70
     1
102
RTVSPropertyOp12
 70
     1
102
RTVSPropertyOp13
 70
     1
102
RTVSPropertyOp14
 70
     1
102
RTVSPropertyOp15
 70
     1
102
RTVSPropertyOp16
 70
     1
102
RTVSPropertyOp17
 70
     1
102
RTVSPropertyOp18
 70
     1
102
RTVSPropertyOp19
 70
     1
102
RTVSPropertyOp20
 70
     1
102
RTVSPropertyOp21
 70
     1
102
RTVSPropertyOp22
 70
     1
102
RTVSPropertyOp23
 70
     1
102
RTVSPropertyOp24
 70
     1
102
RTVSPropertyOp25
 70
     1
102
RTVSPropertyOp26
 70
     1
102
RTVSPropertyOp27
 70
     1
102
RTVSPropertyOp28
 70
     1
102
RTVSPropertyOp29
 70
     1
102
RTVSPropertyOp30
 70
     1
102
RTVSPropertyOp31
 70
     1
102
RTVSPropertyOp32
 70
     1
  0
XRECORD
  5
D827
102
{ACAD_REACTORS
330
D826
102
}
330
D826
100
AcDbXrecord
280
     1
102
RTVSPropertyOp0
 70
     1
102
RTVSPropertyOp1
 70
     1
102
RTVSPropertyOp2
 70
     1
102
RTVSPropertyOp3
 70
     1
102
RTVSPropertyOp4
 70
     1
102
RTVSPropertyOp5
 70
     1
102
RTVSPropertyOp6
 70
     1
102
RTVSPropertyOp7
 70
     1
102
RTVSPropertyOp8
 70
     1
102
RTVSPropertyOp9
 70
     1
102
RTVSPropertyOp10
 70
     1
102
RTVSPropertyOp11
 70
     1
102
RTVSPropertyOp12
 70
     1
102
RTVSPropertyOp13
 70
     1
102
RTVSPropertyOp14
 70
     1
102
RTVSPropertyOp15
 70
     1
102
RTVSPropertyOp16
 70
     1
102
RTVSPropertyOp17
 70
     1
102
RTVSPropertyOp18
 70
     1
102
RTVSPropertyOp19
 70
     1
102
RTVSPropertyOp20
 70
     1
102
RTVSPropertyOp21
 70
     1
102
RTVSPropertyOp22
 70
     1
102
RTVSPropertyOp23
 70
     1
102
RTVSPropertyOp24
 70
     1
102
RTVSPropertyOp25
 70
     1
102
RTVSPropertyOp26
 70
     1
102
RTVSPropertyOp27
 70
     1
102
RTVSPropertyOp28
 70
     1
102
RTVSPropertyOp29
 70
     1
102
RTVSPropertyOp30
 70
     1
102
RTVSPropertyOp31
 70
     1
102
RTVSPropertyOp32
 70
     1
  0
XRECORD
  5
D83F
102
{ACAD_REACTORS
330
D83E
102
}
330
D83E
100
AcDbXrecord
280
     1
102
RTVSPropertyOp0
 70
     1
102
RTVSPropertyOp1
 70
     1
102
RTVSPropertyOp2
 70
     1
102
RTVSPropertyOp3
 70
     1
102
RTVSPropertyOp4
 70
     1
102
RTVSPropertyOp5
 70
     1
102
RTVSPropertyOp6
 70
     1
102
RTVSPropertyOp7
 70
     1
102
RTVSPropertyOp8
 70
     1
102
RTVSPropertyOp9
 70
     1
102
RTVSPropertyOp10
 70
     1
102
RTVSPropertyOp11
 70
     1
102
RTVSPropertyOp12
 70
     1
102
RTVSPropertyOp13
 70
     1
102
RTVSPropertyOp14
 70
     1
102
RTVSPropertyOp15
 70
     1
102
RTVSPropertyOp16
 70
     1
102
RTVSPropertyOp17
 70
     1
102
RTVSPropertyOp18
 70
     1
102
RTVSPropertyOp19
 70
     1
102
RTVSPropertyOp20
 70
     1
102
RTVSPropertyOp21
 70
     1
102
RTVSPropertyOp22
 70
     1
102
RTVSPropertyOp23
 70
     1
102
RTVSPropertyOp24
 70
     1
102
RTVSPropertyOp25
 70
     1
102
RTVSPropertyOp26
 70
     1
102
RTVSPropertyOp27
 70
     1
102
RTVSPropertyOp28
 70
     1
102
RTVSPropertyOp29
 70
     1
102
RTVSPropertyOp30
 70
     1
102
RTVSPropertyOp31
 70
     1
102
RTVSPropertyOp32
 70
     1
  0
ENDSEC
  0
EOF
